<svg xmlns="http://www.w3.org/2000/svg">
<defs>
<font
   id="FontID3"
   horiz-adv-x="693"
   font-variant="normal"
   style="fill-rule:nonzero"
   font-weight="400">
	<font-face
   font-family="Baskerville Old Face"
   id="font-face2">
	</font-face>
   <missing-glyph
   id="missing-glyph6"><path
     d="M0 0z"
     id="path4" /></missing-glyph>
   <glyph
   unicode="2"
   horiz-adv-x="491"
   id="glyph10"><path
     d="M415 0l-379.001 0 0 10.0003c39.8355,35.4986 79.8335,74.9992 119.835,118.668 39.9981,43.6653 74.3327,84.9995 102.832,124.165 40.1671,54.6669 69.1667,101.834 86.8331,141.5 17.6664,39.8323 26.4996,76.8328 26.4996,111.499 0,46.5002 -14.8315,85.835 -44.6666,118.167 -24.9976,26.6686 -54.8327,40.0013 -89.499,40.0013 -30.1668,0 -56.5005,-9.49967 -79.1671,-28.3332 -15.667,-12.5004 -27.6667,-28.3332 -35.9992,-48.0022 -8.49836,-19.5 -12.6662,-40.8336 -12.6662,-63.9976 0,-37.836 12.6662,-69.1667 38.1677,-94.0017 10.9984,-10.9984 23.333,-19.6658 36.8315,-25.6673 13.5017,-5.99828 27.0002,-8.99901 40.3329,-8.99901 2.66909,0 6.50212,0.165822 11.6681,0.500654l3.00073 -8.50155c-23.8337,-12.6662 -44.5008,-18.9993 -62.1672,-18.9993 -27.6667,0 -52.5017,10.3352 -74.3327,30.8333 -13.3359,12.3346 -23.502,27.6667 -30.6674,45.9996 -7.1686,18.167 -10.8326,37.667 -10.8326,58.5 0,50.0016 17.8322,90.8352 53.6656,122.836 37.1664,32.4978 83.8324,48.8313 140.167,48.8313 30.6674,0 59.0006,-5.16598 85.1653,-15.3321 26.1679,-10.3352 48.168,-25.0008 65.6685,-44.1659 15.9986,-16.8341 28.1642,-36.8347 36.6657,-59.5013 8.49836,-22.8324 12.6662,-46.5002 12.6662,-71.1662 0,-48.8345 -17.1657,-98.667 -51.3345,-149.833 -16.6651,-24.3343 -36.6657,-48.4996 -60.1645,-72.3333 -23.333,-24.0027 -55.9999,-53.334 -97.6689,-88.1693 -53.3308,-43.8311 -91.6643,-76.3322 -114.831,-97.4999l176.501 0c29.6661,0 50.6649,1.8336 63.1653,5.33499 16.4993,4.49951 30.4984,12.832 41.5,24.8318 12.3346,13.1669 22.3317,32.1694 29.8319,56.8354l11.0016 -1.99943 -39 -162.001z"
     id="path8" /></glyph>
   <glyph
   unicode="7"
   horiz-adv-x="491"
   id="glyph14"><path
     d="M441.334 657.001l-237.667 -603.001 -9.8345 -25.0008c-5.50081,-13.3327 -11.8339,-22.9982 -18.8335,-28.9996 -6.99959,-6.00147 -15.667,-8.99901 -25.9989,-8.99901 -11.4991,0 -21.1678,3.4982 -29.3345,10.6668 -8.16671,7.16541 -12.1656,15.8328 -12.1656,25.9989 0,8.99901 3.99885,21.6652 12.1656,37.5012l10.1661 19.1652 260.334 494.668 -212.832 0c-17.6664,0 -31.1681,-0.835486 -40.6678,-2.66909 -9.33384,-1.8336 -17.6664,-5.00016 -24.8318,-9.49967 -9.66868,-6.49893 -17.8354,-14.8315 -24.3343,-24.666 -6.33311,-10.0003 -14.8315,-27.0002 -25.0008,-50.9997l-2.50008 -6.00147 -9.99713 0 43.9969 194.834 10.0003 0c2.33426,-10.8326 5.83565,-17.5006 10.8358,-20.3323 4.83115,-2.6659 15.3321,-4.16786 31.6656,-4.16786l294.834 1.50196z"
     id="path12" /></glyph>
   <glyph
   unicode="1"
   horiz-adv-x="491"
   id="glyph18"><path
     d="M274.668 667.001l11.3333 0 0 -536.002c0,-24.9976 2.16525,-45.4989 6.66475,-61.1659 4.33368,-15.8328 11.0016,-27.6667 20.1665,-35.4986 15.667,-13.3359 40.5019,-21.3336 74.6676,-24.3343l0 -10.0003 -282.665 0 0 10.0003c21.8311,1.66778 38.1645,4.33368 49.1661,8.00089 10.8326,3.83303 20.4981,10.1661 28.9996,19.331 8.49836,9.16802 14.334,20.0006 17.3347,32.8359 3.16656,12.6662 4.66533,31.9972 4.66533,58.1651l0 466.667c-17.1657,-1.99943 -30.5016,-3.00073 -39.5006,-3.00073 -23.8337,0 -43.1646,1.99943 -58.1651,6.00147l0 8.99901 11.1643 0c25.1666,0 49.0003,4.16786 71.501,12.3346 22.5007,8.16671 47.1667,21.4994 73.8321,39.9981l10.8358 7.66925z"
     id="path16" /></glyph>
   <glyph
   unicode="9"
   horiz-adv-x="491"
   id="glyph22"><path
     d="M363.165 287.665c-21.8311,-17.8322 -42.833,-30.8333 -62.9995,-38.6651 -20.1665,-8.00089 -41.5,-11.9997 -63.8318,-11.9997 -24.835,0 -49.6668,5.66663 -74.8334,16.9999 -38.0018,17.3315 -67.8338,43.1646 -89.3332,77.8341 -21.4994,34.6663 -32.1662,73.8321 -32.1662,117.332 0,32.1662 5.66663,62.6678 16.8309,91.5016 11.3333,28.6648 27.3351,53.6656 48.168,74.8334 38.4993,39.6664 85.3344,59.4981 140.499,59.4981 65.3337,0 117,-27.3319 155.168,-81.9988 34.8321,-49.5009 52.3327,-113.999 52.3327,-193.335 0,-64.4982 -10.4978,-125.167 -31.4997,-181.833 -21.1646,-56.8322 -51.1655,-105.832 -90.3313,-146.832 -25.8363,-27.3351 -52.3359,-47.5015 -79.8335,-60.4994 -27.3351,-13.0011 -56.8354,-19.5 -88.5009,-19.5 -33.9998,0 -62.0013,6.66475 -84.333,19.9974 -22.5007,13.3359 -33.6682,30.1668 -33.6682,50.3364 0,10.8326 3.16656,19.6658 9.66868,26.6654 6.33311,6.99959 14.3308,10.501 24.1653,10.501 6.49893,0 12.5004,-1.33614 18.0012,-4.00204 6.16729,-3.16656 11.1643,-7.66606 14.8315,-13.3327 3.83303,-5.66663 8.50155,-15.9986 14.0024,-30.6674 5.83246,-15.9986 13.1637,-27.3319 22.1659,-34.1656 8.99901,-6.83376 20.9988,-10.332 36.3341,-10.332 42.664,0 80.8317,27.166 114.331,81.664 34.5005,55.3334 56.1689,122 64.8331,200zm8.83319 170.5c0,61 -11.3333,110.169 -34.1656,147.667 -23.333,38.1677 -52.9991,57.167 -88.6667,57.167 -17.8322,0 -34.6663,-5.16598 -50.4991,-15.3321 -15.667,-10.3352 -29.5003,-25.1666 -41.1684,-44.8324 -11.9997,-19.5 -21.6652,-43.6685 -28.8306,-72.5023 -7.1686,-28.8338 -10.6668,-57.3328 -10.6668,-85.3312 0,-28.668 3.66402,-56.5005 11.1643,-83.3349 7.50024,-26.8344 17.6664,-49.0003 30.3358,-66.166 21.6652,-29.6661 50.3332,-44.5008 85.8318,-44.5008 30.5016,0 56.5005,12.6662 77.9999,38.1677 15.5011,18.8335 27.5009,42.833 35.9992,71.9985 8.50155,29.1687 12.6662,61.5007 12.6662,96.9993z"
     id="path20" /></glyph>
   <glyph
   unicode="6"
   horiz-adv-x="491"
   id="glyph26"><path
     d="M129.825 379.341c21.6723,17.668 42.6804,30.4968 62.6827,38.6572 19.9833,8.0085 41.333,11.9938 63.6505,11.9938 25.1831,0 50.1765,-5.65529 75.3406,-17.1557 37.6703,-17.1746 67.3321,-43.1738 89.0044,-77.8457 21.6723,-34.6529 32.4895,-73.9932 32.4895,-117.831 0,-31.9961 -5.65529,-62.3221 -16.833,-91.1679 -11.3296,-28.8268 -27.3276,-53.991 -48.1649,-75.4925 -38.828,-39.663 -85.6644,-59.4944 -140.49,-59.4944 -65.3395,0 -117.167,27.3276 -155.672,82.0017 -34.5011,49.4933 -51.8275,113.998 -51.8275,193.324 0,64.5045 10.4946,125.176 31.5026,181.842 21.1599,56.8186 50.9925,105.818 89.8205,146.829 26.17,27.3276 52.8333,47.5007 80.3317,60.5002 27.3466,12.9996 56.6668,19.4899 87.9986,19.4899 34.0077,0 62.1703,-6.6611 84.6776,-19.9833 22.4883,-13.1704 33.6661,-30.0034 33.6661,-50.0057 0,-10.6654 -3.16924,-19.5089 -9.50772,-26.5116 -6.31951,-6.98372 -14.328,-10.4946 -24.1583,-10.4946 -6.8319,0 -12.9996,1.49922 -18.5031,4.49767 -5.82609,3.16924 -10.6654,7.66691 -14.328,13.3412 -3.83345,5.82609 -8.50192,16.1688 -14.0054,31.161 -6.16769,16.3396 -13.6638,27.84 -22.6591,34.6719 -9.01431,6.8319 -21.1789,10.3238 -36.3419,10.3238 -42.3388,0 -80.5025,-27.1568 -114.339,-81.4894 -34.5011,-55.661 -55.9836,-122.671 -64.3337,-201.161zm-8.82453 -170.342c0,-61.3353 11.3296,-110.658 34.0077,-148.157 23.4941,-38.5053 52.8333,-57.8434 88.1505,-57.8434 17.8388,0 34.6719,5.16188 50.4991,15.6754 16.017,10.4946 29.6808,25.4868 41.333,44.9956 11.842,19.6607 21.1789,43.838 28.3334,72.6648 7.17349,28.8268 10.6843,57.5018 10.6843,86.006 0,28.9976 -3.68163,57.1602 -11.0069,84.317 -7.17349,27.3466 -17.1746,49.6831 -29.8326,67.3511 -21.8431,29.9844 -50.3283,44.9956 -85.6644,44.9956 -30.4968,0 -56.496,-12.8288 -77.8457,-38.6761 -15.4856,-18.8257 -27.6502,-43.1548 -36.0003,-72.9874 -8.48294,-29.6808 -12.658,-62.3411 -12.658,-98.3414z"
     id="path24" /></glyph>
  </font>
  <font
   id="FontID2"
   horiz-adv-x="535"
   font-variant="normal"
   style="fill-rule:nonzero"
   font-weight="400">
	<font-face
   font-family="Franklin Gothic Book"
   id="font-face29">
	</font-face>
   <missing-glyph
   id="missing-glyph33"><path
     d="M0 0z"
     id="path31" /></missing-glyph>
  </font>
  <font
   id="FontID1"
   horiz-adv-x="683"
   font-variant="normal"
   style="fill-rule:nonzero"
   font-style="normal"
   font-weight="400">
	<font-face
   font-family="Verdana"
   id="font-face36">
	</font-face>
   <missing-glyph
   id="missing-glyph40"><path
     d="M0 0z"
     id="path38" /></missing-glyph>
   <glyph
   unicode="3"
   horiz-adv-x="635"
   id="glyph44"><path
     d="M507.328 350.001c15.6759,-13.8334 28.5172,-31.4936 38.4953,-52.6689 10.1766,-21.1753 15.1657,-48.5019 15.1657,-82.0081 0,-33.1661 -5.98123,-63.4975 -18.0004,-91.1642 -12.1609,-27.6668 -28.9991,-51.8185 -50.8263,-72.3134 -24.4919,-22.6777 -53.1508,-39.5158 -86.1751,-50.5145 -32.996,-10.8286 -69.3086,-16.3279 -108.654,-16.3279 -40.3379,0 -79.9955,4.819 -119.171,14.3153 -39.0056,9.66635 -71.1512,20.1831 -96.1533,31.692l0 101.993 7.31355 0c27.6668,-18.3406 60.3509,-33.6763 97.8541,-45.8372 37.5032,-12.1609 73.6457,-18.1705 108.484,-18.1705 20.665,0 42.5206,3.51504 65.6802,10.3467 22.9895,6.83165 41.8403,16.8098 56.1556,30.1613 14.9956,14.3153 26.1644,30.1613 33.5063,47.4814 7.34189,17.3484 10.9987,39.1757 10.9987,65.5101 0,25.9943 -4.16702,47.6798 -12.5011,64.8298 -8.33404,17.0082 -19.843,30.5015 -34.4984,40.3379 -14.6554,10.0065 -32.5141,17.0082 -53.3209,20.665 -21.0052,3.82686 -43.5128,5.66942 -67.6928,5.66942l-43.9947 0 0 80.9876 34.1866 0c49.6641,0 89.1516,10.3467 118.661,31.0117 29.481,20.8351 44.1648,50.9964 44.1648,90.824 0,17.5185 -3.68512,33.0244 -11.1688,46.1774 -7.51198,13.1814 -18.0004,24.01 -31.3235,32.5141 -14.0035,8.47578 -28.9991,14.3153 -45.0152,17.6602 -15.9878,3.14653 -33.9882,4.819 -54.1713,4.819 -30.9834,0 -63.8376,-5.49933 -98.6478,-16.6681 -35.0086,-11.1688 -67.8346,-26.9864 -98.8463,-47.3113l-4.819 0 0 101.993c23.1596,11.4806 53.9728,21.9973 92.4965,31.6637 38.6654,9.49627 75.9985,14.3436 112.169,14.3436 35.4905,0 66.644,-3.34496 93.8288,-9.83644 26.9864,-6.51983 51.3366,-16.8382 73.1638,-31.1818 23.4997,-15.6476 41.16,-34.4984 53.3209,-56.6658 12.0192,-21.9973 18.0004,-47.9916 18.0004,-77.5009 0,-40.3379 -14.3153,-75.6584 -42.8324,-105.65 -28.4888,-30.1896 -61.9951,-49.1822 -100.831,-56.8359l0 -6.83165c15.6759,-2.66463 33.5063,-8.16396 53.661,-16.498 20.1831,-8.19231 37.3331,-18.5106 51.3366,-31.0117z"
     id="path42" /></glyph>
   <glyph
   unicode="f"
   horiz-adv-x="351"
   id="glyph48"><path
     d="M382.997 671.004l-4.819 0c-10.1766,3.00479 -23.358,6.15132 -39.6859,9.32619 -16.3279,3.17487 -30.6715,4.67727 -43.0025,4.67727 -39.4875,0 -67.9763,-8.84429 -85.835,-26.3344 -17.6602,-17.5185 -26.6463,-49.1822 -26.6463,-95.0194l0 -18.6524 166.001 0 0 -76.9907 -162.996 0 0 -468.01 -92.0146 0 0 468.01 -61.9951 0 0 76.9907 61.9951 0 0 18.1705c0,64.9999 16.1578,114.834 48.3318,149.673 32.344,34.8102 79.0033,52.1586 140.006,52.1586 20.4949,0 39.0056,-0.992148 55.5036,-3.00479 16.3279,-1.84256 31.4936,-4.16702 45.1569,-6.83165l0 -84.1625z"
     id="path46" /></glyph>
   <glyph
   unicode="c"
   horiz-adv-x="520"
   id="glyph52"><path
     d="M494.005 34.1582c-30.5015,-14.4854 -59.6706,-25.8242 -87.1673,-33.9882 -27.3266,-8.16396 -56.6658,-12.1609 -87.5074,-12.1609 -39.3174,0 -75.4883,5.81115 -108.343,17.3201 -32.8259,11.5089 -60.9746,28.9991 -84.3326,52.4988 -23.8115,23.3296 -42.1521,53.009 -55.1634,88.8398 -12.983,35.6606 -19.5028,77.5009 -19.5028,125.322 0,89.1799 24.5202,159.169 73.504,209.853 48.842,50.8263 113.502,76.1686 193.837,76.1686 31.1818,0 61.825,-4.3371 92.0146,-13.1814 29.9912,-8.67421 57.658,-19.5028 82.6601,-32.1739l0 -101.653 -4.84735 0c-27.9786,21.4871 -56.8359,37.9851 -86.657,49.6641 -29.8211,11.5089 -58.8202,17.3201 -87.1673,17.3201 -51.9885,0 -93.1769,-17.4901 -123.168,-52.3287 -30.1613,-34.8386 -45.1569,-86.1468 -45.1569,-153.67 0,-65.4818 14.6554,-115.996 44.1648,-151.147 29.481,-35.1787 70.8394,-52.839 124.16,-52.839 18.6807,0 37.5032,2.32446 56.6658,7.17181 19.1626,4.819 36.511,11.1688 51.6767,18.8225 13.3231,6.83165 25.9943,14.0035 37.6449,21.4871 11.679,7.51198 21.0052,14.0035 27.8368,19.5028l4.84735 0 0 -100.831z"
     id="path50" /></glyph>
   <glyph
   unicode="t"
   horiz-adv-x="393"
   id="glyph56"><path
     d="M372.991 4.67727c-17.15,-4.67727 -36.0008,-8.33404 -56.3257,-11.3388 -20.3249,-2.83471 -38.4953,-4.3371 -54.3414,-4.3371 -55.6453,0 -97.9959,14.9956 -126.825,44.9868 -28.9991,29.8495 -43.5128,77.8411 -43.5128,144.003l0 290.019 -61.9951 0 0 76.9907 61.9951 0 0 156.986 92.0146 0 0 -156.986 188.99 0 0 -76.9907 -188.99 0 0 -248.831c0,-28.6872 0.651983,-51.1665 2.01264,-67.3527 1.16223,-16.1578 5.81115,-31.1534 13.6633,-45.1569 7.00173,-13.0113 16.8098,-22.6777 29.3109,-28.6589 12.5011,-6.00958 31.692,-9.01437 57.3461,-9.01437 14.8255,0 30.5015,2.32446 46.6593,6.83165 16.3279,4.50719 28.0069,8.16396 35.1787,11.1688l4.819 0 0 -82.3199z"
     id="path54" /></glyph>
   <glyph
   unicode="A"
   horiz-adv-x="683"
   id="glyph60"><path
     d="M671.004 0l-103.183 0 -70.9811 202.001 -314.993 0 -71.0094 -202.001 -97.8258 0 264.478 726.989 129.008 0 264.507 -726.989zm-204.666 285.994l-126.995 356.011 -127.505 -356.011 254.5 0z"
     id="path58" /></glyph>
   <glyph
   unicode="q"
   horiz-adv-x="622"
   id="glyph64"><path
     d="M533.008 -201.008l-92 0 0 262.52c-28.3465,-24.5039 -56.6614,-42.6772 -84.6614,-54.6772 -28,-11.8425 -58.3307,-17.8268 -91.0236,-17.8268 -64.8189,0 -116.661,25.0079 -155.307,74.8346 -38.6772,49.9843 -58.0157,118.992 -58.0157,206.835 0,46.8346 6.83465,88.1575 20.3465,124.157 13.4803,36 31.3071,66.1732 53.4803,90.4882 21.6693,23.685 46.8346,42.1732 75.8425,55.1811 29.1654,13.0079 59.8425,19.4961 92,19.4961 29.3228,0 55.4961,-3.33858 78.1732,-9.82677 22.6457,-6.51969 45.6693,-16 69.1654,-28.6614l5.82677 23.4961 86.1732 0 0 -746.016zm-92 339.024l0 308.315c-25.5118,11.3386 -48,19.3386 -67.4961,23.8425 -19.4961,4.50394 -40.8504,6.83465 -63.685,6.83465 -53.1654,0 -93.4803,-18.0157 -121.323,-53.8268 -27.685,-36 -41.5118,-85.5118 -41.5118,-148.693 0,-63.6535 11.1811,-112.661 33.5118,-146.992 22.3307,-34.3307 57.5118,-51.4961 105.512,-51.4961 26.6457,0 53.4803,5.82677 80.1575,17.3228 26.6457,11.4961 51.6535,26.3307 74.8346,44.6929z"
     id="path62" /></glyph>
   <glyph
   unicode="L"
   horiz-adv-x="556"
   id="glyph68"><path
     d="M558.012 0l-460.016 0 0 726.989 97.0037 0 0 -640.984 363.013 0 0 -86.005z"
     id="path66" /></glyph>
   <glyph
   unicode="n"
   horiz-adv-x="632"
   id="glyph72"><path
     d="M547.014 0l-92.0146 0 0 310.514c0,24.9738 -1.5024,48.4735 -4.3371,70.4992 -3.00479,21.9973 -8.33404,39.1473 -16.1578,51.4783 -8.16396,13.6633 -20.013,23.8399 -35.3488,30.5015 -15.3358,6.66156 -35.1504,10.0065 -59.6423,10.0065 -25.0021,0 -51.3366,-6.17966 -78.6915,-18.5106 -27.4967,-12.331 -53.661,-28.1487 -78.8332,-47.3113l0 -407.177 -91.9863 0 0 545.001 91.9863 0 0 -60.6628c28.6872,23.8399 58.3383,42.3222 89.0098,55.6737 30.6715,13.3231 62.1652,19.9847 94.5092,19.9847 58.9903,0 104.005,-17.6602 134.989,-53.1508 31.0117,-35.5189 46.5176,-86.5153 46.5176,-153.188l0 -353.658z"
     id="path70" /></glyph>
   <glyph
   unicode="8"
   horiz-adv-x="635"
   id="glyph76"><path
     d="M576 202.488c0,-62.9921 -24.5039,-115.15 -73.3228,-156.976 -49.0079,-41.6693 -110.52,-62.5197 -184.661,-62.5197 -78.6772,0 -141.354,20.3465 -188,61.1654 -46.6772,40.6614 -70.0157,92.8504 -70.0157,156.346 0,40.315 11.6535,77.0079 35.1811,109.669 23.4961,32.8189 56.4724,58.8346 99.1496,77.9843l0 3.02362c-38.9921,20.8189 -67.6535,43.6535 -86.3307,68.315 -18.6772,24.8504 -28,55.8425 -28,92.8504 0,54.8346 22.3307,100.472 67.1811,136.976 44.8189,36.5039 101.638,54.6772 170.835,54.6772 72.315,0 130.142,-17.5118 173.323,-52.3465 43.1496,-34.8346 64.6614,-79.1496 64.6614,-132.819 0,-33.0079 -10.1732,-65.3228 -30.4882,-97.1654 -20.3465,-31.6535 -50.1732,-56.5039 -89.5118,-74.4882l0 -2.83465c45.3228,-19.685 80,-43.685 104,-72.3465 24,-28.6614 36,-65.1654 36,-109.512zm-116 355.843c0,34.8346 -13.3228,62.8346 -40,83.4961 -26.6772,20.8504 -60.6614,31.1811 -101.984,31.1811 -40.6929,0 -74.0157,-9.82677 -100,-29.5118 -26.0157,-19.4961 -39.0236,-45.9843 -39.0236,-79.3386 0,-23.4961 6.51969,-43.811 19.685,-60.9764 13.1654,-17.1654 32.9764,-32.5039 59.4961,-45.8583 12,-5.98425 29.3228,-13.6693 51.8425,-23.1496 22.4882,-9.51181 44.315,-17.3543 65.8268,-23.4961 31.6535,21.4803 53.6693,44 65.8268,67.1496 12.1575,23.1811 18.3307,50.0157 18.3307,80.5039zm14.9921 -365.008c0,29.8583 -6.48819,53.8583 -19.6535,72 -13.1654,18.0157 -38.8346,36.189 -77.1654,54.5197 -15.1811,7.14961 -32,13.8268 -50.0157,20 -18.1417,6.17323 -42.3307,14.8346 -72.5039,25.8268 -29.1654,-16 -52.4724,-37.5118 -70.1417,-65.0079 -17.6693,-27.3386 -26.5197,-58.1732 -26.5197,-92.6614 0,-44 15.0236,-80.3465 45.1654,-109.008 30.1732,-28.6614 68.5039,-42.9921 114.835,-42.9921 47.3386,0 85.1654,12.1575 113.512,36.6614 28.315,24.3465 42.4882,58.0157 42.4882,100.661z"
     id="path74" /></glyph>
   <glyph
   unicode="ó"
   horiz-adv-x="606"
   id="glyph80"><path
     d="M555.008 272.33c0,-88.8398 -22.8477,-158.829 -68.3448,-210.335 -45.4971,-51.3366 -106.5,-76.9907 -182.839,-76.9907 -77.1608,0 -138.334,25.6541 -183.831,76.9907 -45.327,51.5066 -68.0046,121.496 -68.0046,210.335 0,88.6697 22.6777,158.829 68.0046,210.335 45.4971,51.5066 106.67,77.3308 183.831,77.3308 76.3387,0 137.342,-25.8242 182.839,-77.3308 45.4971,-51.5066 68.3448,-121.666 68.3448,-210.335zm-95.0194 0c0,70.159 -13.8334,122.346 -41.33,156.504 -27.6668,34.1582 -65.8219,51.1665 -114.834,51.1665 -49.6641,0 -88.3295,-17.0082 -115.656,-51.1665 -27.4967,-34.1582 -41.16,-86.3452 -41.16,-156.504 0,-68.0046 13.8334,-119.483 41.33,-154.662 27.6668,-35.1787 66.1621,-52.6689 115.486,-52.6689 48.6719,0 86.8555,17.3201 114.522,52.1586 27.8085,34.8386 41.6419,86.5153 41.6419,155.172zm-5.98123 546.673l-133.345 -183.009 -72.6536 0 87.3374 183.009 118.661 0z"
     id="path78" /></glyph>
   <glyph
   unicode="I"
   horiz-adv-x="421"
   id="glyph84"><path
     d="M353.998 0l-286.986 0 0 73.9859 94.9911 0 0 579.017 -94.9911 0 0 73.9859 286.986 0 0 -73.9859 -94.9911 0 0 -579.017 94.9911 0 0 -73.9859z"
     id="path82" /></glyph>
   <glyph
   unicode="5"
   horiz-adv-x="635"
   id="glyph88"><path
     d="M565.014 231c0,-33.8464 -6.17966,-66.3322 -18.5106,-97.1738 -12.5011,-30.8133 -29.3392,-57.006 -50.8263,-77.9828 -23.4997,-22.8477 -51.5066,-40.3379 -83.8507,-52.4988 -32.4858,-12.1892 -69.9889,-18.3406 -112.651,-18.3406 -39.6859,0 -78.0112,4.16702 -114.834,12.5011 -36.8512,8.33404 -68.0046,18.3406 -93.3469,30.1613l0 103.325 6.83165 0c26.6746,-17.15 57.9981,-31.8338 93.8288,-43.8246 35.8591,-12.1609 71.1795,-18.1705 105.678,-18.1705 23.1596,0 45.4971,3.34496 67.1542,9.83644 21.6855,6.49148 41.0182,17.8303 58.0265,34.1582 14.3153,14.0035 25.1439,30.8416 32.4858,50.3444 7.34189,19.5028 10.9987,42.1521 10.9987,67.8346 0,25.1722 -4.3371,46.3191 -13.0113,63.6675 -8.64586,17.15 -20.665,30.9834 -35.9724,41.5001 -16.8382,12.331 -37.5032,21.0052 -61.8533,26.1644 -24.3218,4.98909 -51.5066,7.48363 -81.4979,7.48363 -28.6589,0 -56.3257,-1.9843 -82.8302,-5.98123 -26.6746,-3.99694 -49.494,-7.99388 -68.8267,-11.9908l0 374.975 437.991 0 0 -84.9846 -343.992 0 0 -193.837c14.0035,1.16223 28.3187,2.15438 43.0025,2.83471 14.8255,0.651983 27.4967,0.992148 38.3253,0.992148 39.3457,0 74.0142,-3.31661 103.665,-10.0065 29.6794,-6.66156 57.006,-18.4823 81.838,-35.3205 25.9943,-18.0004 46.3191,-40.9899 60.6628,-69.337 14.3436,-28.3187 21.5154,-63.8376 21.5154,-106.33z"
     id="path86" /></glyph>
   <glyph
   unicode="h"
   horiz-adv-x="632"
   id="glyph92"><path
     d="M547.014 0l-92.0146 0 0 310.514c0,24.9738 -1.5024,48.4735 -4.3371,70.4992 -3.00479,21.9973 -8.33404,39.1473 -16.1578,51.4783 -8.16396,13.6633 -20.013,23.8399 -35.3488,30.5015 -15.3358,6.66156 -35.1504,10.0065 -59.6423,10.0065 -25.0021,0 -51.3366,-6.17966 -78.6915,-18.5106 -27.4967,-12.331 -53.661,-28.1487 -78.8332,-47.3113l0 -407.177 -91.9863 0 0 760.014 91.9863 0 0 -275.675c28.6872,23.8399 58.3383,42.3222 89.0098,55.6737 30.6715,13.3231 62.1652,19.9847 94.5092,19.9847 58.9903,0 104.005,-17.6602 134.989,-53.1508 31.0117,-35.5189 46.5176,-86.5153 46.5176,-153.188l0 -353.658z"
     id="path90" /></glyph>
   <glyph
   unicode="y"
   horiz-adv-x="591"
   id="glyph96"><path
     d="M562.009 545.001l-318.168 -746.01 -97.3439 0 100.66 227.344 -217.167 518.667 99.8384 0 167.163 -404.343 169.345 404.343 95.6714 0z"
     id="path94" /></glyph>
   <glyph
   unicode="2"
   horiz-adv-x="635"
   id="glyph100"><path
     d="M570.016 0l-491.024 0 0 102.488c34.1732,29.3543 68.3465,58.6772 102.52,87.8425 34.3307,29.3228 66.1417,58.4882 95.811,87.4961 62.3307,60.5039 105.008,108.504 128,144.189 23.1811,35.6535 34.6772,74.1417 34.6772,115.496 0,37.6693 -12.5039,67.1496 -37.3228,88.5039 -24.8504,21.3228 -59.4961,32 -104,32 -29.5118,0 -61.5118,-5.19685 -96,-15.685 -34.3307,-10.4882 -68,-26.6772 -100.85,-48.315l-4.8189 0 0 102.488c22.9921,11.4961 53.8268,21.8268 92.1575,31.3386 38.4882,9.48031 75.8425,14.1732 111.843,14.1732 74.3307,0 132.504,-18.0157 174.646,-53.8583 42.1732,-36 63.3386,-84.6614 63.3386,-146.142 0,-27.685 -3.49606,-53.3543 -10.4882,-77.3543 -6.99213,-23.8425 -17.1654,-46.4882 -30.8346,-68 -12.6614,-20.1575 -27.4961,-40 -44.5039,-59.4961 -17.1654,-19.4961 -37.8268,-41.1654 -62.1732,-64.8189 -34.6457,-34.1732 -70.4882,-67.3386 -107.496,-99.3386 -37.0079,-32 -71.6535,-61.6693 -103.654,-89.0079l390.173 0 0 -84z"
     id="path98" /></glyph>
   <glyph
   unicode="C"
   horiz-adv-x="698"
   id="glyph104"><path
     d="M659.013 52.839c-17.8587,-7.85214 -34.1866,-15.1657 -48.6719,-21.9973 -14.3436,-6.83165 -33.3362,-13.8334 -56.8359,-21.3454 -19.843,-6.15132 -41.33,-11.5089 -64.6597,-15.8177 -23.358,-4.50719 -48.842,-6.68991 -76.8489,-6.68991 -52.839,0 -100.66,7.34189 -143.833,22.1674 -43.1726,14.8539 -80.6758,38.0134 -112.51,69.6771 -31.3235,30.8416 -55.6453,70.159 -73.3339,117.839 -17.4901,47.6514 -26.3061,102.985 -26.3061,166.171 0,59.8123 8.47578,113.332 25.3139,160.501 17.0082,47.1695 41.33,86.9972 73.3339,119.483 30.8416,31.6637 68.1747,55.6737 111.999,72.3418 43.8529,16.498 92.3264,24.832 145.846,24.832 39.0056,0 77.9828,-4.67727 116.818,-14.1735 39.0056,-9.49627 82.1782,-26.1644 129.688,-49.8342l0 -115.004 -7.34189 0c-39.9977,33.1661 -79.6836,57.1761 -119.001,72.3418 -39.3457,15.1657 -81.4979,22.6777 -126.343,22.6777 -36.8229,0 -69.8189,-5.8395 -99.3282,-17.6886 -29.5093,-11.8207 -55.6737,-30.3314 -78.8332,-55.3335 -22.3375,-24.1517 -39.8276,-54.9933 -52.3287,-92.1564 -12.5011,-36.9929 -18.8508,-79.8254 -18.8508,-128.497 0,-50.9964 6.85999,-94.6793 20.6934,-131.332 13.8334,-36.6811 31.6637,-66.5023 53.4909,-89.4917 22.8194,-24.01 49.3239,-41.6702 79.6553,-53.1791 30.5015,-11.5089 62.6754,-17.3201 96.4935,-17.3201 46.5176,0 90.002,7.99388 130.68,23.8115 40.6781,15.846 78.6632,39.5158 114.154,71.1795l6.85999 0 0 -113.162z"
     id="path102" /></glyph>
   <glyph
   unicode="T"
   horiz-adv-x="616"
   id="glyph108"><path
     d="M617.003 641.013l-259.999 0 0 -641.013 -97.0037 0 0 641.013 -259.999 0 0 85.9767 617.003 0 0 -85.9767z"
     id="path106" /></glyph>
   <glyph
   unicode="í"
   horiz-adv-x="274"
   id="glyph112"><path
     d="M181.988 0l-91.9863 0 0 545.001 91.9863 0 0 -545.001zm101.001 819.004l-133.316 -183.009 -72.6819 0 87.3374 183.009 118.661 0z"
     id="path110" /></glyph>
   <glyph
   unicode="v"
   horiz-adv-x="591"
   id="glyph116"><path
     d="M562.009 545.001l-220.682 -545.001 -92.1564 0 -219.18 545.001 99.1864 0 169.317 -433.654 167.503 433.654 96.0116 0z"
     id="path114" /></glyph>
   <glyph
   unicode="e"
   horiz-adv-x="595"
   id="glyph120"><path
     d="M547.014 263.004l-402.018 0c0,-33.3362 5.01743,-62.5053 15.1657,-87.3374 10.0065,-24.832 23.8399,-45.1569 41.5001,-61.0029 16.8382,-15.5059 36.9929,-27.1565 60.1809,-35.0086 23.3296,-7.82379 48.9838,-11.6507 76.9907,-11.6507 36.9929,0 74.326,7.34189 111.999,22.1674 37.5032,14.8255 64.3479,29.481 80.3356,43.8246l4.819 0 0 -100.15c-30.8133,-13.0113 -62.477,-23.8399 -94.6509,-32.6842 -32.1739,-8.81594 -65.992,-13.153 -101.511,-13.153 -90.3138,0 -160.983,24.4919 -211.668,73.3339 -50.8263,48.8137 -76.1686,118.321 -76.1686,208.323 0,89.0098 24.3501,159.679 73.0221,211.838 48.6436,52.3287 112.651,78.4931 191.995,78.4931 73.6741,0 130.34,-21.4871 170.168,-64.3195 39.8276,-43.0025 59.8407,-103.835 59.8407,-182.839l0 -49.8342zm-89.0098 69.9889c-0.340165,48.02 -12.5011,85.183 -36.511,111.517 -23.8399,26.3344 -60.3226,39.4875 -109.165,39.4875 -49.3239,0 -88.4996,-14.4854 -117.669,-43.3427 -29.1691,-28.9991 -45.6671,-64.8298 -49.6641,-107.662l313.008 0z"
     id="path118" /></glyph>
   <glyph
   unicode="b"
   horiz-adv-x="623"
   id="glyph124"><path
     d="M570.995 276.668c0,-45.4971 -6.49148,-86.4869 -19.3327,-122.828 -12.8412,-36.511 -30.1613,-67.0125 -52.1586,-91.8445 -23.1596,-25.6541 -48.5019,-44.8167 -76.3387,-57.658 -27.6668,-12.8412 -58.1682,-19.3327 -91.5044,-19.3327 -30.9834,0 -57.9981,3.65677 -81.1577,10.9987 -23.1596,7.34189 -46.0073,17.15 -68.5149,29.5093l-5.81115 -25.5124 -86.1751 0 0 760.014 91.9863 0 0 -272.189c25.8525,21.1753 53.1791,38.4953 82.1782,52.0169 28.9991,13.4932 61.6549,20.1548 97.8258,20.1548 64.688,0 115.684,-24.662 153.018,-74.156 37.3331,-49.3523 55.9855,-119.171 55.9855,-209.173zm-94.9911 -2.01264c0,64.9999 -10.8286,114.352 -32.344,147.858 -21.4871,33.648 -56.1556,50.4862 -104.147,50.4862 -26.6746,0 -53.8595,-5.8395 -81.186,-17.3201 -27.3266,-11.5089 -52.839,-26.3344 -76.3387,-44.5049l0 -312.016c26.1644,-11.6507 48.5019,-19.8146 67.3527,-24.3218 18.6524,-4.50719 39.9977,-6.83165 63.8376,-6.83165 50.8263,0 90.654,16.6681 119.483,50.0043 28.829,33.3362 43.3427,85.4948 43.3427,156.646z"
     id="path122" /></glyph>
   <glyph
   unicode="s"
   horiz-adv-x="520"
   id="glyph128"><path
     d="M480.001 158.177c0,-49.6641 -20.4949,-90.5122 -61.6549,-122.346 -41.1883,-31.8338 -97.3439,-47.8215 -168.693,-47.8215 -40.3096,0 -77.3308,4.819 -110.979,14.3153 -33.6763,9.66635 -61.8533,20.1831 -84.6727,31.6637l0 103.013 4.819 0c28.8573,-21.9973 61.0029,-39.4875 96.3517,-52.4988 35.3205,-13.0113 69.1669,-19.5028 101.483,-19.5028 40.1678,0 71.6898,6.49148 94.3391,19.6729 22.6777,12.983 34.0165,33.648 34.0165,61.825 0,21.5154 -6.17966,37.6733 -18.5106,48.6719 -12.331,11.1688 -36.0008,20.4949 -71.0094,28.3187 -12.983,3.00479 -29.9912,6.34975 -50.8263,10.3467 -21.0052,3.82686 -39.9977,7.99388 -57.3178,12.6711 -47.6798,12.6711 -81.5262,31.1534 -101.341,55.8154 -20.013,24.5202 -29.9912,54.6815 -29.9912,90.3421 0,22.5076 4.64892,43.6829 13.9751,63.4975 9.18445,19.843 23.358,37.5032 42.3505,53.1791 18.1705,15.1657 41.33,27.3266 69.6488,36.3126 28.177,8.84429 59.6706,13.3515 94.5092,13.3515 32.6558,0 65.6802,-3.99694 99.1581,-11.9908 33.3362,-7.85214 61.173,-17.5185 83.3404,-29.0274l0 -97.9959 -4.819 0c-23.4997,17.3484 -51.8468,32.0039 -85.3531,44.023 -33.4779,11.9908 -66.3322,18.0004 -98.4778,18.0004 -33.3362,0 -61.6832,-6.51983 -84.6727,-19.3611 -23.1596,-12.983 -34.6685,-32.1456 -34.6685,-57.828 0,-22.3375 7.00173,-39.3174 21.0052,-50.6562 13.4932,-11.3388 35.6606,-20.665 66.1621,-27.8368 16.8382,-3.82686 35.6606,-7.65371 56.6658,-11.679 20.8351,-3.82686 38.3253,-7.48363 52.3287,-10.6585 42.4923,-9.83644 75.1765,-26.5045 98.336,-50.1743 22.9895,-24.1517 34.4984,-55.9855 34.4984,-95.6431z"
     id="path126" /></glyph>
   <glyph
   unicode=","
   horiz-adv-x="363"
   id="glyph132"><path
     d="M281.005 139.014l-137.682 -320.01 -71.3213 0 84.9846 320.01 124.018 0z"
     id="path130" /></glyph>
   <glyph
   unicode="p"
   horiz-adv-x="623"
   id="glyph136"><path
     d="M570.995 278.822c0,-44.1648 -6.3214,-84.6444 -19.1626,-121.155 -12.6711,-36.6528 -30.5015,-67.6645 -53.661,-93.0068 -21.6855,-24.1517 -46.9995,-42.6624 -76.1686,-55.8154 -29.1691,-13.1814 -60.1809,-19.843 -92.6666,-19.843 -28.5172,0 -54.1713,3.17487 -77.1608,9.32619 -23.0178,6.17966 -46.3475,15.6759 -70.1874,28.6589l0 -227.996 -91.9863 0 0 746.01 91.9863 0 0 -57.1761c24.5202,20.4949 52.0169,37.6733 82.5184,51.5066 30.5015,13.8334 62.9872,20.665 97.4856,20.665 66.0204,0 117.329,-24.832 154.01,-74.4961 36.6528,-49.494 54.9933,-118.491 54.9933,-206.679zm-94.9911 -1.9843c0,65.8219 -11.1688,114.834 -33.6763,147.32 -22.5076,32.5141 -57.1477,48.842 -103.835,48.842 -26.3344,0 -52.9807,-5.66942 -79.6553,-17.0082 -26.8447,-11.4806 -52.3287,-26.3344 -76.8489,-44.9868l0 -308.671c26.1644,-11.8207 48.5019,-19.843 67.3527,-24.01 18.6524,-4.16702 39.9977,-6.3214 63.8376,-6.3214 51.1665,0 91.1642,17.1783 119.823,51.6767 28.6589,34.4984 43.0025,85.4948 43.0025,153.159z"
     id="path134" /></glyph>
   <glyph
   unicode="m"
   horiz-adv-x="972"
   id="glyph140"><path
     d="M885.988 0l-91.9863 0 0 310.514c0,23.3296 -0.992148,45.979 -3.17487,67.8062 -2.15438,21.8556 -6.66156,39.1757 -13.3231,52.187 -7.51198,14.0035 -18.3406,24.662 -32.344,31.8338 -14.0035,7.17181 -34.1582,10.6585 -60.4927,10.6585 -25.6541,0 -51.3366,-6.49148 -76.9907,-19.3327 -25.6825,-12.8412 -51.3366,-29.1691 -77.1891,-49.0121 1.02049,-7.48363 1.84256,-16.1578 2.52289,-26.1644 0.651983,-9.83644 0.992148,-19.6445 0.992148,-29.481l0 -349.009 -92.0146 0 0 310.514c0,23.9816 -0.992148,46.8294 -3.14653,68.4865 -2.18273,21.6572 -6.66156,39.0056 -13.3515,51.9885 -7.48363,14.0035 -18.3122,24.5202 -32.3157,31.522 -14.0035,7.00173 -34.1866,10.4884 -60.521,10.4884 -24.9738,0 -50.146,-6.17966 -75.3182,-18.5106 -25.1722,-12.331 -50.3444,-28.1487 -75.3465,-47.3113l0 -407.177 -91.9863 0 0 545.001 91.9863 0 0 -60.4927c28.6872,23.6698 57.1761,42.1521 85.6649,55.5036 28.5172,13.3231 58.8485,19.9847 91.0225,19.9847 37.163,0 68.6566,-7.82379 94.4808,-23.3296 25.8525,-15.6759 45.1852,-37.163 57.8564,-64.8298 37.163,31.1534 70.9811,53.661 101.653,67.4944 30.5015,13.8334 63.1573,20.665 97.9959,20.665 60.0108,0 104.176,-18.1705 132.664,-54.3414 28.5172,-36.3126 42.6624,-86.9972 42.6624,-151.997l0 -353.658z"
     id="path138" /></glyph>
   <glyph
   unicode="7"
   horiz-adv-x="635"
   id="glyph144"><path
     d="M573.008 618.987l-329.166 -618.987 -104.828 0 350.313 642.005 -414.321 0 0 84.9846 498.002 0 0 -108.002z"
     id="path142" /></glyph>
   <glyph
   unicode="®"
   horiz-adv-x="1000"
   id="glyph148"><path
     d="M923.009 319.5c0,-116.507 -41.33,-216.175 -123.848,-298.665 -82.49,-82.49 -182.158,-123.848 -298.665,-123.848 -116.507,0 -216.175,41.3584 -298.665,123.848 -82.49,82.49 -123.82,182.158 -123.82,298.665 0,116.507 41.33,216.175 123.82,298.665 82.49,82.49 182.158,123.848 298.665,123.848 116.507,0 216.175,-41.3584 298.665,-123.848 82.5184,-82.49 123.848,-182.158 123.848,-298.665zm-57.006 0c0,101.001 -35.6606,187.658 -107.18,259.999 -71.3213,72.3418 -157.496,108.513 -258.327,108.513 -100.831,0 -187.006,-36.1709 -258.327,-108.513 -71.4913,-72.3418 -107.18,-158.999 -107.18,-259.999 0,-101.001 35.689,-187.658 107.18,-259.999 71.3213,-72.3418 157.496,-108.513 258.327,-108.513 100.831,0 187.006,36.1709 258.327,108.513 71.5197,72.3418 107.18,158.999 107.18,259.999zm-93.9989 -214.502l-109.505 0 -161.153 173.002 -78.3513 0 0 -173.002 -80.9876 0 0 447.005 152.337 0c30.5015,0 55.6453,-1.33231 75.4883,-3.82686 19.843,-2.66463 39.4875,-9.01437 58.6785,-19.1626 20.4949,-11.027 35.4905,-24.5202 45.1569,-40.3379 9.49627,-15.846 14.3436,-35.689 14.3436,-59.3304 0,-31.692 -9.18445,-57.9981 -27.525,-79.0033 -18.3122,-21.1753 -43.4844,-37.8434 -75.6584,-50.1743l187.176 -195.17zm-172.01 318.99c0,11.8491 -2.32446,22.1674 -6.83165,31.3519 -4.50719,9.15611 -12.1609,16.6681 -22.8194,22.5076 -10.0065,5.49933 -20.665,9.15611 -32.1739,10.6585 -11.3388,1.67248 -25.5124,2.49454 -42.6624,2.49454l-72.5118 0 0 -151.005 61.825 0c20.013,0 37.3331,1.5024 52.0169,4.67727 14.4854,3.00479 26.5045,8.33404 36.0008,15.8177 10.0065,8.16396 17.0082,17.1783 21.1753,26.8447 3.99694,9.83644 5.98123,21.9973 5.98123,36.6528z"
     id="path146" /></glyph>
   <glyph
   unicode="á"
   horiz-adv-x="600"
   id="glyph152"><path
     d="M515.01 0l-92.0146 0 0 58.3383c-8.16396,-5.49933 -18.9925,-13.3515 -32.8259,-23.1596 -13.8334,-10.0065 -27.1565,-17.8587 -40.1678,-23.8399 -15.3358,-7.51198 -32.8259,-13.6633 -52.6689,-18.8508 -19.6729,-4.98909 -43.0025,-7.48363 -69.507,-7.48363 -48.9838,0 -90.654,16.3279 -124.67,48.842 -34.1582,32.6558 -51.1665,74.156 -51.1665,124.642 0,41.5001 8.84429,75.0064 26.5045,100.519 17.6602,25.6541 43.0025,45.8372 75.8284,60.4927 33.0244,14.6554 72.852,24.4919 119.171,29.8211 46.5176,5.18752 96.3517,9.01437 149.503,11.679l0 14.3436c0,20.8351 -3.65677,38.3253 -10.9987,51.9885 -7.34189,13.8334 -17.6602,24.662 -31.3235,32.5141 -13.0113,7.48363 -28.6589,12.6428 -46.8294,15.1657 -18.1705,2.66463 -37.163,3.99694 -57.006,3.99694 -24.01,0 -50.8263,-3.17487 -80.3356,-9.66635 -29.6794,-6.51983 -60.1809,-16.0161 -91.6745,-28.3471l-4.819 0 0 93.1769c17.8303,4.819 43.8246,10.1483 77.671,15.9878 33.8181,5.8395 67.1542,8.84429 99.9802,8.84429 38.4953,0 71.8315,-3.17487 100.349,-9.49627 28.4888,-6.34975 53.1508,-17.1783 73.9859,-32.5141 20.4949,-14.9956 36.1709,-34.3283 46.8294,-58.1682 10.8569,-23.8399 16.1862,-53.3209 16.1862,-88.4996l0 -370.326zm-92.0146 134.337l0 152.649c-27.8368,-1.64413 -60.6628,-4.13867 -98.336,-7.31355 -37.815,-3.34496 -67.6645,-7.99388 -89.6618,-14.3436 -26.3344,-7.48363 -47.5097,-19.1626 -63.6675,-35.0086 -16.1578,-15.8177 -24.3218,-37.815 -24.3218,-65.4818 0,-31.4936 9.32619,-55.1634 28.1487,-71.0094 18.8508,-15.8177 47.5097,-23.8399 86.005,-23.8399 32.1739,0 61.3431,6.34975 88.0177,18.8508 26.4762,12.6711 51.1665,27.8368 73.8158,45.4971zm34.0165 684.667l-133.345 -183.009 -72.6536 0 87.309 183.009 118.689 0z"
     id="path150" /></glyph>
   <glyph
   unicode="4"
   horiz-adv-x="635"
   id="glyph156"><path
     d="M588 205.008l-108 0 0 -205.008 -93.9843 0 0 205.008 -348 0 0 112.157 352 409.827 89.9843 0 0 -444 108 0 0 -77.9843zm-201.984 77.9843l0 327.339 -281.197 -327.339 281.197 0z"
     id="path154" /></glyph>
   <glyph
   unicode="g"
   horiz-adv-x="623"
   id="glyph160"><path
     d="M533.01 62.1652c0,-92.3264 -21.0052,-159.991 -63.1856,-203.334 -42.1521,-43.1726 -106.812,-64.8298 -194.319,-64.8298 -28.9991,0 -57.3461,1.9843 -85.0129,6.15132 -27.4967,4.02529 -54.6532,9.83644 -81.4979,17.1783l0 93.6588 4.84735 0c14.9956,-5.66942 38.8355,-12.8129 71.4913,-21.317 32.6558,-8.50412 65.34,-12.6711 97.9959,-12.6711 31.3235,0 57.3461,3.65677 77.8411,11.1688 20.4949,7.48363 36.4827,17.8303 47.9916,30.9834 11.5089,12.6711 19.6729,27.8368 24.4919,45.6671 4.84735,17.6886 7.34189,37.6733 7.34189,59.6706l0 49.3523c-27.6668,-21.9973 -54.1713,-38.5237 -79.4852,-49.5224 -25.3423,-10.8286 -57.5162,-16.3279 -96.6635,-16.3279 -65.1699,0 -117.017,23.4997 -155.342,70.4992 -38.3253,46.9995 -57.5162,113.332 -57.5162,198.826 0,47.0278 6.68991,87.3374 19.843,121.354 13.1814,33.9882 31.1818,63.3274 54.0012,88.1594 21.3454,22.9895 46.9995,40.9899 77.3308,53.8311 30.3314,12.8412 60.4927,19.3327 90.5122,19.3327 31.6637,0 58.1682,-3.17487 79.4852,-9.49627 21.5154,-6.3214 43.9947,-15.9878 67.8346,-28.9991l5.8395 23.4997 86.1751 0 0 -482.836zm-92.0146 87.3374l0 296.822c-24.4919,10.9987 -47.1695,18.8508 -68.1747,23.6698 -21.1469,4.67727 -41.982,7.00173 -62.9872,7.00173 -50.4862,0 -90.3421,-16.8382 -119.341,-50.6562 -28.9991,-33.8464 -43.4844,-82.8302 -43.4844,-147.178 0,-61.173 10.8286,-107.322 32.3157,-138.816 21.5154,-31.522 57.1761,-47.3396 107.18,-47.3396 26.6746,0 53.4909,5.15917 80.3356,15.3358 26.9864,10.3183 51.6484,23.9816 74.156,41.16z"
     id="path158" /></glyph>
   <glyph
   unicode="V"
   horiz-adv-x="683"
   id="glyph164"><path
     d="M671.004 726.989l-264.507 -726.989 -129.008 0 -264.478 726.989 103.155 0 227.996 -639 227.825 639 99.0164 0z"
     id="path162" /></glyph>
   <glyph
   unicode="S"
   horiz-adv-x="683"
   id="glyph168"><path
     d="M624.996 207.501c0,-28.177 -6.66156,-56.1556 -19.843,-83.8223 -13.153,-27.6668 -31.4936,-51.1665 -55.3335,-70.3575 -25.9943,-20.8068 -56.3257,-36.9929 -90.9941,-48.8137 -34.4984,-11.679 -76.3387,-17.5185 -124.982,-17.5185 -52.3571,0 -99.4983,4.84735 -141.339,14.6838 -41.6702,9.66635 -84.1625,24.1517 -127.505,43.3143l0 121.014 6.83165 0c36.6811,-30.3314 79.0033,-53.8311 127.165,-70.3291 47.9916,-16.498 93.1769,-24.662 135.499,-24.662 59.6706,0 106.33,11.1688 139.496,33.4779 33.3362,22.3375 50.0043,52.187 50.0043,89.5201 0,32.1456 -7.82379,55.8154 -23.6698,71.1512 -15.6476,15.3358 -39.6576,27.1849 -71.8315,35.6606 -24.4919,6.51983 -50.8263,11.8491 -79.3151,16.0161 -28.5172,4.3371 -58.6785,9.66635 -90.5122,16.1578 -64.3479,13.6633 -111.999,36.9929 -143.181,70.0173 -30.9834,32.996 -46.4892,75.9985 -46.4892,129.149 0,60.8328 25.6825,110.667 77.1608,149.503 51.5066,38.8355 116.677,58.3383 195.85,58.3383 51.1665,0 97.9959,-4.84735 140.658,-14.6554 42.6624,-9.66635 80.5057,-21.8556 113.332,-36.1709l0 -114.182 -6.83165 0c-27.6668,23.3296 -64.0077,42.6624 -108.995,57.9981 -45.1852,15.3358 -91.1642,23.0178 -138.334,23.0178 -51.8468,0 -93.3469,-10.6868 -124.67,-32.0039 -31.4936,-21.5154 -47.1695,-49.0121 -47.1695,-82.6601 0,-30.1896 7.82379,-54.0012 23.3296,-71.1795 15.6759,-17.3201 43.1726,-30.5015 82.5184,-39.4875 20.8351,-4.67727 50.3161,-10.1766 88.6413,-16.6681 38.5237,-6.51983 71.0094,-13.1814 97.684,-20.013 54.0012,-14.3153 94.5092,-36.0008 121.836,-64.8298 27.3266,-28.9991 40.9899,-69.507 40.9899,-121.666z"
     id="path166" /></glyph>
   <glyph
   unicode="d"
   horiz-adv-x="623"
   id="glyph172"><path
     d="M533.01 0l-92.0146 0 0 57.1761c-26.5045,-22.6777 -54.0012,-40.508 -82.6601,-53.1791 -28.6589,-12.6711 -59.8407,-18.9925 -93.4887,-18.9925 -65.1699,0 -117.017,25.0021 -155.342,75.1481 -38.3253,50.0043 -57.5162,119.511 -57.5162,208.181 0,46.1774 6.68991,87.3374 19.843,123.338 13.1814,36.1709 31.0117,66.8424 53.4909,92.3264 22.1674,24.662 48.19,43.5128 77.671,56.4957 29.5093,13.0113 60.0108,19.5028 91.6745,19.5028 28.6589,0 54.1713,-3.00479 76.3387,-8.98602 22.1674,-6.00958 45.4971,-15.3358 69.9889,-28.0069l0 237.01 92.0146 0 0 -760.014zm-92.0146 133.827l0 312.016c-24.832,10.9987 -46.9995,18.6524 -66.5023,22.8194 -19.6729,4.16702 -40.9899,6.34975 -64.1494,6.34975 -51.5066,0 -91.6745,-17.8587 -120.333,-53.5193 -28.6872,-35.6606 -43.0025,-86.3169 -43.0025,-151.827 0,-64.6597 11.1688,-113.672 33.3362,-147.32 22.1674,-33.5063 57.658,-50.3444 106.5,-50.3444 26.1644,0 52.6689,5.8395 79.3151,17.3201 26.6746,11.5089 51.6767,26.3344 74.8363,44.5049z"
     id="path170" /></glyph>
   <glyph
   unicode=" "
   horiz-adv-x="351"
   id="glyph174" />
   <glyph
   unicode="u"
   horiz-adv-x="632"
   id="glyph178"><path
     d="M542.988 0l-91.9863 0 0 60.6628c-31.0117,-24.4919 -60.6628,-43.1726 -89.0098,-56.1556 -28.4888,-13.0113 -59.6706,-19.5028 -93.9989,-19.5028 -57.3178,0 -102.163,17.4901 -133.997,52.4988 -32.0039,34.8386 -47.9916,86.1751 -47.9916,153.84l0 353.658 91.9863 0 0 -310.514c0,-27.6668 1.33231,-51.3082 3.8552,-70.9811 2.66463,-19.6729 8.16396,-36.511 16.6397,-50.5145 8.84429,-14.3153 20.3532,-24.662 34.3567,-31.1534 14.0035,-6.49148 34.3283,-9.83644 61.1447,-9.83644 23.8399,0 49.8342,6.15132 78.0112,18.5106 28.177,12.331 54.5114,28.1487 79.0033,47.3113l0 407.177 91.9863 0 0 -545.001z"
     id="path176" /></glyph>
   <glyph
   unicode="é"
   horiz-adv-x="595"
   id="glyph182"><path
     d="M547.014 263.004l-402.018 0c0,-33.3362 5.01743,-62.5053 15.1657,-87.3374 10.0065,-24.832 23.8399,-45.1569 41.5001,-61.0029 16.8382,-15.5059 36.9929,-27.1565 60.1809,-35.0086 23.3296,-7.82379 48.9838,-11.6507 76.9907,-11.6507 36.9929,0 74.326,7.34189 111.999,22.1674 37.5032,14.8255 64.3479,29.481 80.3356,43.8246l4.819 0 0 -100.15c-30.8133,-13.0113 -62.477,-23.8399 -94.6509,-32.6842 -32.1739,-8.81594 -65.992,-13.153 -101.511,-13.153 -90.3138,0 -160.983,24.4919 -211.668,73.3339 -50.8263,48.8137 -76.1686,118.321 -76.1686,208.323 0,89.0098 24.3501,159.679 73.0221,211.838 48.6436,52.3287 112.651,78.4931 191.995,78.4931 73.6741,0 130.34,-21.4871 170.168,-64.3195 39.8276,-43.0025 59.8407,-103.835 59.8407,-182.839l0 -49.8342zm-89.0098 69.9889c-0.340165,48.02 -12.5011,85.183 -36.511,111.517 -23.8399,26.3344 -60.3226,39.4875 -109.165,39.4875 -49.3239,0 -88.4996,-14.4854 -117.669,-43.3427 -29.1691,-28.9991 -45.6671,-64.8298 -49.6641,-107.662l313.008 0zm10.9987 486.011l-133.345 -183.009 -72.6536 0 87.3374 183.009 118.661 0z"
     id="path180" /></glyph>
   <glyph
   unicode="ú"
   horiz-adv-x="632"
   id="glyph186"><path
     d="M542.988 0l-91.9863 0 0 60.6628c-31.0117,-24.4919 -60.6628,-43.1726 -89.0098,-56.1556 -28.4888,-13.0113 -59.6706,-19.5028 -93.9989,-19.5028 -57.3178,0 -102.163,17.4901 -133.997,52.4988 -32.0039,34.8386 -47.9916,86.1751 -47.9916,153.84l0 353.658 91.9863 0 0 -310.514c0,-27.6668 1.33231,-51.3082 3.8552,-70.9811 2.66463,-19.6729 8.16396,-36.511 16.6397,-50.5145 8.84429,-14.3153 20.3532,-24.662 34.3567,-31.1534 14.0035,-6.49148 34.3283,-9.83644 61.1447,-9.83644 23.8399,0 49.8342,6.15132 78.0112,18.5106 28.177,12.331 54.5114,28.1487 79.0033,47.3113l0 407.177 91.9863 0 0 -545.001zm-80.9876 819.004l-133.345 -183.009 -72.6536 0 87.3374 183.009 118.661 0z"
     id="path184" /></glyph>
   <glyph
   unicode="."
   horiz-adv-x="363"
   id="glyph190"><path
     d="M241.007 0l-117.017 0 0 139.014 117.017 0 0 -139.014z"
     id="path188" /></glyph>
   <glyph
   unicode="P"
   horiz-adv-x="602"
   id="glyph194"><path
     d="M573.008 507.328c0,-32.3157 -5.66942,-62.1652 -16.8382,-89.6618 -11.1688,-27.4967 -26.8447,-51.3366 -46.9995,-71.4913 -25.0021,-25.0021 -54.5114,-43.8529 -88.6697,-56.354 -33.9882,-12.5011 -77.1608,-18.8225 -129.008,-18.8225l-96.4935 0 0 -270.998 -97.0037 0 0 726.989 197.012 0c43.6545,0 80.5057,-3.65677 110.667,-10.9987 30.3314,-7.31355 57.1477,-18.8225 80.5057,-34.3283 27.6384,-18.6524 48.9838,-41.6702 64.1494,-69.337 15.1657,-27.6668 22.6777,-62.6471 22.6777,-104.998zm-101.001 -2.32446c0,24.832 -4.3371,46.4892 -13.1814,64.8298 -8.64586,18.5106 -21.9973,33.5063 -39.8276,45.1569 -15.5059,10.0065 -33.3362,17.1783 -53.1508,21.5154 -20.013,4.3371 -45.1852,6.49148 -75.5166,6.49148l-95.3312 0 0 -288.006 81.1577 0c38.8355,0 70.4992,3.51504 94.6793,10.3467 24.3218,7.00173 44.1648,18.0004 59.3304,33.1661 15.3358,15.5059 25.9943,31.8338 32.344,48.9838 6.3214,17.0082 9.49627,36.341 9.49627,57.5162z"
     id="path192" /></glyph>
   <glyph
   unicode="r"
   horiz-adv-x="426"
   id="glyph198"><path
     d="M430.989 444.992l-4.819 0c-13.8334,3.17487 -27.0148,5.49933 -39.9977,6.83165 -12.8412,1.5024 -28.0069,2.18273 -45.6671,2.18273 -28.3471,0 -55.8438,-6.34975 -82.1782,-18.8508 -26.5045,-12.5011 -51.8185,-28.6589 -76.3387,-48.5019l0 -386.654 -91.9863 0 0 545.001 91.9863 0 0 -80.5057c36.511,29.3392 68.685,50.0043 96.6919,62.1652 27.8085,12.1609 56.3257,18.3406 85.3247,18.3406 15.9878,0 27.4967,-0.340165 34.6685,-1.16223 7.17181,-0.850412 18.0004,-2.35281 32.3157,-4.67727l0 -94.169z"
     id="path196" /></glyph>
   <glyph
   unicode="a"
   horiz-adv-x="600"
   id="glyph202"><path
     d="M515.01 0l-92.0146 0 0 58.3383c-8.16396,-5.49933 -18.9925,-13.3515 -32.8259,-23.1596 -13.8334,-10.0065 -27.1565,-17.8587 -40.1678,-23.8399 -15.3358,-7.51198 -32.8259,-13.6633 -52.6689,-18.8508 -19.6729,-4.98909 -43.0025,-7.48363 -69.507,-7.48363 -48.9838,0 -90.654,16.3279 -124.67,48.842 -34.1582,32.6558 -51.1665,74.156 -51.1665,124.642 0,41.5001 8.84429,75.0064 26.5045,100.519 17.6602,25.6541 43.0025,45.8372 75.8284,60.4927 33.0244,14.6554 72.852,24.4919 119.171,29.8211 46.5176,5.18752 96.3517,9.01437 149.503,11.679l0 14.3436c0,20.8351 -3.65677,38.3253 -10.9987,51.9885 -7.34189,13.8334 -17.6602,24.662 -31.3235,32.5141 -13.0113,7.48363 -28.6589,12.6428 -46.8294,15.1657 -18.1705,2.66463 -37.163,3.99694 -57.006,3.99694 -24.01,0 -50.8263,-3.17487 -80.3356,-9.66635 -29.6794,-6.51983 -60.1809,-16.0161 -91.6745,-28.3471l-4.819 0 0 93.1769c17.8303,4.819 43.8246,10.1483 77.671,15.9878 33.8181,5.8395 67.1542,8.84429 99.9802,8.84429 38.4953,0 71.8315,-3.17487 100.349,-9.49627 28.4888,-6.34975 53.1508,-17.1783 73.9859,-32.5141 20.4949,-14.9956 36.1709,-34.3283 46.8294,-58.1682 10.8569,-23.8399 16.1862,-53.3209 16.1862,-88.4996l0 -370.326zm-92.0146 134.337l0 152.649c-27.8368,-1.64413 -60.6628,-4.13867 -98.336,-7.31355 -37.815,-3.34496 -67.6645,-7.99388 -89.6618,-14.3436 -26.3344,-7.48363 -47.5097,-19.1626 -63.6675,-35.0086 -16.1578,-15.8177 -24.3218,-37.815 -24.3218,-65.4818 0,-31.4936 9.32619,-55.1634 28.1487,-71.0094 18.8508,-15.8177 47.5097,-23.8399 86.005,-23.8399 32.1739,0 61.3431,6.34975 88.0177,18.8508 26.4762,12.6711 51.1665,27.8368 73.8158,45.4971z"
     id="path200" /></glyph>
   <glyph
   unicode="o"
   horiz-adv-x="606"
   id="glyph206"><path
     d="M555.008 272.33c0,-88.8398 -22.8477,-158.829 -68.3448,-210.335 -45.4971,-51.3366 -106.5,-76.9907 -182.839,-76.9907 -77.1608,0 -138.334,25.6541 -183.831,76.9907 -45.327,51.5066 -68.0046,121.496 -68.0046,210.335 0,88.6697 22.6777,158.829 68.0046,210.335 45.4971,51.5066 106.67,77.3308 183.831,77.3308 76.3387,0 137.342,-25.8242 182.839,-77.3308 45.4971,-51.5066 68.3448,-121.666 68.3448,-210.335zm-95.0194 0c0,70.159 -13.8334,122.346 -41.33,156.504 -27.6668,34.1582 -65.8219,51.1665 -114.834,51.1665 -49.6641,0 -88.3295,-17.0082 -115.656,-51.1665 -27.4967,-34.1582 -41.16,-86.3452 -41.16,-156.504 0,-68.0046 13.8334,-119.483 41.33,-154.662 27.6668,-35.1787 66.1621,-52.6689 115.486,-52.6689 48.6719,0 86.8555,17.3201 114.522,52.1586 27.8085,34.8386 41.6419,86.5153 41.6419,155.172z"
     id="path204" /></glyph>
   <glyph
   unicode="l"
   horiz-adv-x="274"
   id="glyph210"><path
     d="M181.988 0l-91.9863 0 0 760.014 91.9863 0 0 -760.014z"
     id="path208" /></glyph>
   <glyph
   unicode="6"
   horiz-adv-x="635"
   id="glyph214"><path
     d="M581.994 236.33c0,-73.9859 -24.3218,-134.507 -72.9937,-181.166 -48.6719,-46.8294 -108.513,-70.159 -179.154,-70.159 -35.8591,0 -68.3448,5.49933 -97.684,16.6681 -29.3392,10.9987 -55.1634,27.4967 -77.671,49.3239 -27.9786,27.0148 -49.6641,62.8455 -64.8298,107.35 -15.1657,44.6467 -22.6493,98.3077 -22.6493,161.153 0,64.4896 6.97338,121.666 20.8068,171.5 13.8334,49.8342 35.8591,93.9989 66.1904,132.834 28.6589,36.8229 65.4818,65.5101 110.837,86.1751 45.327,20.665 97.9959,30.9834 158.148,30.9834 19.3327,0 35.3488,-0.822065 48.5019,-2.49454 13.0113,-1.5024 26.1644,-4.50719 39.5158,-8.67421l0 -92.8367 -4.84735 0c-9.15611,4.84735 -22.8194,9.35454 -41.33,13.5216 -18.3406,4.3371 -37.163,6.49148 -56.3257,6.49148 -69.8472,0 -125.663,-21.8273 -167.333,-65.6802 -41.6702,-43.6545 -65.8503,-102.645 -72.6819,-177.141 27.3266,16.6681 54.1713,29.1408 80.8459,37.815 26.5045,8.67421 57.1477,13.0113 91.9863,13.0113 30.8416,0 58.1682,-2.83471 81.6679,-8.50412 23.6698,-5.8395 47.8499,-17.1783 72.5118,-34.4984 28.6589,-19.843 50.3161,-45.0152 64.8298,-75.3465 14.4854,-30.3314 21.6572,-66.9842 21.6572,-110.327zm-98.988 -3.82686c0,30.1613 -4.50719,54.9933 -13.4932,74.8363 -8.84429,19.6729 -23.6698,36.8229 -44.1931,51.5066 -14.9956,10.3183 -31.4936,16.9799 -49.8058,20.3249 -18.1705,3.17487 -37.1914,4.819 -57.1761,4.819 -27.6668,0 -53.3492,-3.14653 -77.1608,-9.66635 -23.6698,-6.49148 -48.19,-16.498 -73.1638,-30.1613 -0.68033,-7.17181 -1.19058,-14.0035 -1.5024,-20.665 -0.340165,-6.49148 -0.510247,-14.8255 -0.510247,-25.0021 0,-51.1665 5.32925,-91.5044 15.846,-120.985 10.6585,-29.6794 25.1439,-53.009 43.8246,-70.1874 14.8255,-14.3153 31.1534,-24.662 48.5019,-31.3235 17.4901,-6.66156 36.4827,-10.0065 57.006,-10.0065 47.1412,0 84.3326,14.3436 111.319,43.0025 27.0148,28.6589 40.508,69.8472 40.508,123.508z"
     id="path212" /></glyph>
   <glyph
   unicode="ñ"
   horiz-adv-x="632"
   id="glyph218"><path
     d="M547.014 0l-92.0146 0 0 310.514c0,24.9738 -1.5024,48.4735 -4.3371,70.4992 -3.00479,21.9973 -8.33404,39.1473 -16.1578,51.4783 -8.16396,13.6633 -20.013,23.8399 -35.3488,30.5015 -15.3358,6.66156 -35.1504,10.0065 -59.6423,10.0065 -25.0021,0 -51.3366,-6.17966 -78.6915,-18.5106 -27.4967,-12.331 -53.661,-28.1487 -78.8332,-47.3113l0 -407.177 -91.9863 0 0 545.001 91.9863 0 0 -60.6628c28.6872,23.8399 58.3383,42.3222 89.0098,55.6737 30.6715,13.3231 62.1652,19.9847 94.5092,19.9847 58.9903,0 104.005,-17.6602 134.989,-53.1508 31.0117,-35.5189 46.5176,-86.5153 46.5176,-153.188l0 -353.658zm-23.0178 790.005c-3.65677,-49.3523 -16.1578,-86.5153 -37.6733,-111.517 -21.6572,-24.9738 -50.4862,-37.4748 -86.8271,-37.4748 -17.6602,0 -33.9882,3.14653 -48.9838,9.49627 -15.024,6.3214 -29.1691,15.4775 -42.6907,27.4967 -15.3074,14.0035 -28.3187,24.4919 -38.8072,31.4936 -10.6868,7.00173 -22.3375,10.4884 -35.0086,10.4884 -17.0082,0 -29.8495,-7.31355 -38.3253,-21.9973 -8.50412,-14.6554 -13.3515,-34.3283 -14.6838,-58.9903l-62.9872 0c2.66463,49.1538 15.4775,86.3452 38.6654,111.347 22.9895,25.1439 51.3366,37.6449 84.9846,37.6449 16.1862,0 32.0039,-3.14653 47.1695,-9.49627 14.9956,-6.49148 29.5093,-15.5059 43.1726,-27.3266 15.3358,-13.3231 28.829,-23.3296 40.8198,-30.1613 11.8491,-6.66156 23.1879,-10.0065 34.0165,-10.0065 16.498,0 29.5093,7.51198 38.8355,22.5076 9.15611,14.8255 14.3153,33.648 15.3358,56.4957l62.9872 0z"
     id="path216" /></glyph>
   <glyph
   unicode="z"
   horiz-adv-x="525"
   id="glyph222"><path
     d="M484.99 0l-440.003 0 0 67.0125 317.856 400.998 -310.854 0 0 76.9907 425.008 0 0 -65.992 -319.16 -402.018 327.154 0 0 -76.9907z"
     id="path220" /></glyph>
   <glyph
   unicode="i"
   horiz-adv-x="274"
   id="glyph226"><path
     d="M187.998 636.987l-104.005 0 0 95.0194 104.005 0 0 -95.0194zm-6.00958 -636.987l-91.9863 0 0 545.001 91.9863 0 0 -545.001z"
     id="path224" /></glyph>
  </font>
  <font
   id="FontID0"
   horiz-adv-x="697"
   font-variant="normal"
   style="fill-rule:nonzero"
   font-style="normal"
   font-weight="400,700">
	<font-face
   font-family="Bell MT"
   id="font-face229">
	</font-face>
   <missing-glyph
   id="missing-glyph233"><path
     d="M0 0z"
     id="path231" /></missing-glyph>
   <glyph
   unicode="U"
   horiz-adv-x="760"
   id="glyph237"><path
     d="M51.5038 638.997l244.501 0c13.9919,0 20.993,-2.99308 20.993,-8.83425 0,-5.83081 -5.16799,-9.16567 -15.6593,-10.1599 -23.1679,-2.34061 -40.3393,-8.66854 -51.5038,-19.0045 -11.1645,-10.5017 -19.5016,-28.833 -25.3324,-55.1701 -5.66511,-26.3267 -8.50284,-82.8328 -8.50284,-169.332 0,-103.826 3.00344,-175.66 8.99996,-215.668 6.17258,-39.9975 25.001,-71.834 56.8375,-95.499 31.8261,-23.4993 75.1585,-35.3266 129.997,-35.3266 57.5003,0 101.164,10.8331 131.167,32.665 30.0033,21.8319 49.4946,54.1655 58.4946,97.1664 8.99996,42.8352 13.5051,136.17 13.5051,279.662 0,73.8328 -7.66395,122.167 -23.0022,145.17 -15.3279,22.8365 -37.9987,34.3324 -68.002,34.3324 -11.993,0 -17.9999,3.50056 -17.9999,10.336 0,6.504 8.00572,9.66279 23.8411,9.66279l193.991 0c8.83425,0 13.1737,-3.15879 13.1737,-9.66279 0,-4.67086 -3.50056,-7.33253 -10.6674,-8.33713 -24.3382,-3.66627 -42.1724,-11.4959 -53.6683,-23.4993 -11.3302,-11.993 -18.8285,-33.8353 -22.329,-65.4957 -3.50056,-31.505 -5.33369,-77.8305 -5.33369,-139.173 0,-76.4945 -2.83773,-141.327 -8.50284,-194.83 -5.83081,-53.3369 -17.9999,-93.1687 -37.0044,-119.33 -18.8285,-26.1713 -47.33,-47.3404 -85.163,-63.5072 -37.9987,-16.1668 -84.6659,-24.1621 -140.002,-24.1621 -56.8271,0 -104.996,8.99996 -144.994,27.1656 -39.8422,17.9999 -66.842,41.9964 -81.01,71.834 -14.1576,29.8376 -21.3244,74.3299 -21.3244,133.663l1.99884 135.341c0,120.334 -5.16799,193.825 -15.3382,220.66 -10.336,26.8342 -32.3336,40.6707 -66.1689,41.3335 -10.9988,0 -16.4982,2.67202 -16.4982,8.00572 0,6.65935 6.83541,9.9942 20.5062,9.9942z"
     id="path235" /></glyph>
   <glyph
   unicode="D"
   horiz-adv-x="791"
   id="glyph241"><path
     d="M385.001 -11.0021c-14.3328,0 -73.1699,1.00985 -176.494,2.99412l-107.682 -0.496067 -63.0005 1.00985c-14.9883,0 -24.4844,0.832684 -28.1518,2.6575 -3.84452,1.66537 -5.66934,5.66934 -5.66934,11.8347 0,9.33669 6.99809,13.9962 21.1714,13.9962 26.823,0 46.4886,4.50004 58.9965,13.6773 12.4903,9.15952 20.321,25.9904 23.4923,50.4925 3.33073,24.5022 6.34257,73.1699 9.17724,146.34 2.81695,72.9927 4.16342,140.334 4.16342,201.669 0,86.4928 -4.16342,139.501 -12.508,159.326 -8.32684,19.6655 -29.0022,30.3309 -61.8312,31.9963 -11.8347,1.00985 -17.6635,5.8465 -17.6635,14.51 0,8.66345 5.17327,12.9863 15.6615,12.9863 6.1654,0 27.1774,-1.82482 63.0005,-5.49217 39.8271,-3.66735 67.5005,-5.49217 83.1621,-5.49217l185.175 4.9961c61.8312,0 121.501,-11.8347 178.832,-35.5042 57.3312,-23.6695 102.828,-62.3273 136.666,-115.991 33.6617,-53.6815 50.4925,-114.503 50.4925,-182.34 0,-50.3331 -9.83275,-97.176 -29.6577,-140.83 -19.6655,-43.5122 -48.3311,-80.168 -85.6601,-109.843 -37.5062,-29.6577 -74.6758,-49.1638 -111.668,-58.5005 -36.833,-9.31897 -80.168,-13.9962 -130.005,-13.9962zm-33.5022 35.0081c68.6698,0 122.83,23.9884 162.675,72.16 39.8271,47.9945 59.8292,116.664 59.8292,205.832 0,90.6739 -21.508,165.332 -64.5064,224.01 -42.8212,58.6599 -103.837,87.9987 -182.996,87.9987 -27.0002,0 -43.335,-1.50592 -48.6677,-4.6772 -5.49217,-3.17128 -8.84062,-6.32485 -9.9922,-9.49614 -1.34647,-3.33073 -3.34845,-40.0043 -6.00595,-109.826l-5.82879 -166.342c-1.00985,-40.8369 -1.50592,-91.5066 -1.50592,-151.991 0,-45.5141 2.00198,-76.8372 6.00595,-94.0047 3.8268,-17.1675 12.4903,-30.3309 25.8309,-39.6676 13.5001,-9.33669 35.1676,-13.9962 65.1619,-13.9962z"
     id="path239" /></glyph>
   <glyph
   unicode="R"
   horiz-adv-x="697"
   id="glyph245"><path
     d="M383.159 327.174c43.8488,-6.1654 80.0085,-19.5061 108.515,-39.8448 28.4884,-20.4982 49.8193,-60.9985 64.1521,-121.501 13.5001,-56.8351 28.0101,-94.1641 43.335,-112.324 15.3426,-18.0001 37.0101,-27.8329 64.843,-29.4983 15.3249,-1.00985 22.9962,-5.8465 22.9962,-14.6694 0,-9.49614 -12.3308,-14.3328 -37.1696,-14.3328l-188.505 4.9961c-19.4883,19.5061 -32.829,54.337 -39.9865,104.493 -9.17724,64.1698 -18.6734,109.347 -28.5061,135.834 -9.6733,26.3447 -24.325,45.1775 -43.9905,56.4985 -19.5061,11.5158 -42.1834,17.1675 -68.0143,17.1675 -7.49415,0 -17.823,-0.496067 -30.827,-1.4882 0,-115.176 0.336617,-186.007 1.1693,-212.671 0.832684,-26.6636 6.1654,-45.833 15.9982,-57.5083 9.83275,-11.4981 28.329,-18.0001 55.8252,-19.3289 14.6694,-0.992134 22.0041,-5.82879 22.0041,-14.6694 0,-8.8229 -6.32485,-13.3229 -18.9923,-13.3229l-150.007 4.9961c-20.3387,0 -46.1697,-0.832684 -77.6699,-2.49805 -29.0022,-1.66537 -47.4984,-2.49805 -55.3292,-2.49805 -13.3229,0 -20.0021,4.83665 -20.0021,14.3328 0,9.15952 5.82879,13.6596 17.6635,13.6596 18.1773,0 35.1676,4.50004 50.6697,13.6773 15.3426,9.15952 23.1734,47.835 23.1734,116.168l-0.496067 90.9928 0.496067 175.838c0,90.6562 -4.00397,146.163 -11.9942,166.165 -7.84849,20.1616 -29.3388,30.4904 -64.0103,31.1636 -13.6596,0.336617 -20.4982,4.9961 -20.4982,13.9962 0,9.33669 9.15952,13.9962 27.3368,13.9962 91.8255,0 169.495,2.00198 233.329,6.00595 28.329,2.00198 53.841,2.99412 76.6601,2.99412 73.8431,0 131.67,-14.8289 173.677,-44.3271 42.0062,-29.6577 63.0005,-68.1738 63.0005,-115.991 0,-32.014 -10.0099,-60.6796 -29.8349,-86.1739 -19.8427,-25.4943 -44.6637,-44.5043 -74.3392,-56.8351 -29.8349,-12.508 -64.6659,-20.3387 -104.67,-23.4923zm-133.159 20.321c8.504,-0.336617 14.8289,-0.496067 18.9923,-0.496067 28.5061,0 57.1717,5.33272 86.0145,15.9982 28.825,10.6654 49.1638,27.6734 61.158,51.0063 11.8347,23.4923 17.8407,48.3311 17.8407,74.8352 0,40.9964 -12.0119,72.8333 -36.1775,95.8295 -24.1655,22.8368 -55.3292,34.3349 -93.4909,34.3349 -15.9982,0 -34.1755,-2.99412 -54.337,-8.84062l0 -262.667z"
     id="path243" /></glyph>
   <glyph
   unicode="A"
   horiz-adv-x="697"
   id="glyph249"><path
     d="M321.008 662.001l35.1499 0c42.8389,-92.9948 103.501,-239.494 181.844,-439.338 36.1597,-91.8255 60.9985,-147.491 74.6581,-166.997 13.5001,-19.5061 35.1676,-31.3408 64.6659,-35.6637 9.83275,-1.32875 14.6694,-5.50989 14.6694,-12.8269 0,-10.1694 -6.32485,-15.1832 -18.9923,-15.1832 -6.83864,0 -24.5022,1.1693 -53.1677,3.5079 -33.8388,2.99412 -62.3273,4.50004 -85.3412,4.50004 -22.5002,0 -51.8213,-1.32875 -87.8216,-4.00397 -27.0002,-2.00198 -44.8409,-2.99412 -53.1677,-2.99412 -15.006,0 -22.5002,4.65949 -22.5002,13.9962 0,6.99809 5.15555,11.0021 15.6615,11.9942 40.0043,3.66735 60.0064,19.5061 60.0064,47.6756 0,13.1635 -6.00595,37.1696 -17.8407,72.16 -11.8347,34.831 -24.5022,66.6678 -38.0023,95.174 -20.9943,0.336617 -37.4885,0.496067 -49.1638,0.496067 -65.3391,0 -116.168,-0.15945 -152.505,-0.496067 -28.1695,-76.8372 -42.3251,-127.666 -42.3251,-152.505 0,-17.823 6.99809,-31.5002 20.9943,-41.333 13.9962,-9.83275 29.1616,-15.5021 45.4964,-17.1675 12.508,-1.32875 18.6734,-6.32485 18.6734,-14.9883 0,-8.68117 -6.66147,-13.004 -20.0021,-13.004 -5.33272,0 -18.9923,0.655517 -41.1558,2.00198 -28.6833,2.00198 -49.6776,2.99412 -62.6816,2.99412 -25.6537,0 -50.1559,-1.50592 -73.3293,-4.65949 -5.82879,-0.832684 -10.8249,-1.34647 -14.6694,-1.34647 -12.1536,0 -18.1596,5.01382 -18.1596,14.8466 0,7.15754 4.00397,11.8347 11.8347,14.1556 19.4883,5.50989 34.831,12.1714 45.9925,20.3387 11.0021,7.99022 22.9962,23.4923 35.8408,46.3291 13.004,22.9962 28.329,59.8292 46.1697,110.499 40.1637,114.007 99.8335,267.841 179.169,461.838zm-33.5022 -170.009l-83.1798 -217.986 171.001 2.49805c-9.15952,25.3348 -23.1557,59.9887 -41.9885,104.156 -20.4982,48.3311 -35.6814,85.5007 -45.833,111.332z"
     id="path247" /></glyph>
   <glyph
   unicode="c"
   horiz-adv-x="468"
   id="glyph253"><path
     d="M42.0062 206.506c0,61.4946 20.9943,113.989 63.0005,157.82 41.9885,43.8488 94.8196,65.6757 158.334,65.6757 41.6519,0 78.3254,-10.0099 109.985,-30.1715 31.8369,-20.1616 47.6756,-43.8311 47.6756,-71.3273 0,-16.3348 -4.83665,-29.1616 -14.3328,-38.4983 -9.6733,-9.33669 -21.8269,-13.9962 -36.4964,-13.9962 -28.0101,0 -48.0122,20.321 -60.0064,60.9985 -6.50202,22.323 -13.6596,38.1617 -21.4903,47.6579 -8.16739,9.49614 -19.8427,14.3328 -35.1676,14.3328 -26.6813,0 -46.6657,-13.5001 -60.1658,-40.3232 -13.5001,-27.0002 -20.3387,-67.3411 -20.3387,-121.182 0,-61.8312 11.1615,-111.154 33.3251,-148.165 22.1636,-36.833 50.8469,-55.3292 85.9967,-55.3292 47.0023,0 80.0085,28.329 99.3374,85.1641 6.1654,17.8407 13.5001,26.8408 21.8447,26.8408 9.15952,0 13.819,-4.83665 13.819,-14.6694 0,-28.5061 -14.4922,-59.3331 -43.335,-92.4988 -28.825,-33.1656 -71.9829,-49.837 -129.332,-49.837 -62.8233,0 -113.989,20.4982 -153.497,61.4946 -39.4905,41.0141 -59.156,93.0125 -59.156,156.013z"
     id="path251" /></glyph>
   <glyph
   unicode="t"
   horiz-adv-x="385"
   id="glyph257"><path
     d="M220.006 420.505c19.825,0.992134 50.1559,1.4882 91.1523,1.4882 18.5139,0 33.8388,-1.66537 45.8508,-4.81894 -4.83665,-24.3427 -9.17724,-37.3468 -13.004,-39.0121 -3.66735,-1.4882 -45.0004,-4.65949 -123.999,-9.15952l-5.01382 -215.665c0,-30.6676 1.50592,-53.1677 4.6772,-67.5005 2.99412,-14.3328 9.9922,-26.3447 20.9943,-36.1775 11.0021,-9.83275 25.3348,-14.6517 42.8389,-14.6517 14.8289,0 36.0003,7.83077 63.656,23.6518 4.18114,2.17915 7.67132,3.34845 10.6832,3.34845 6.1654,0 9.15952,-3.17128 9.15952,-9.6733 0,-9.33669 -13.1635,-22.0041 -39.331,-38.1617 -26.3447,-16.1753 -57.1717,-24.1655 -92.4988,-24.1655 -41.8291,0 -74.6758,10.3288 -98.5047,30.827 -23.8289,20.4982 -35.6637,63.8332 -35.6637,129.828 0,73.0104 1.32875,145.667 3.8268,218.34 -31.9963,0 -54.6559,0.832684 -67.9966,2.49805 -13.1635,1.50592 -19.825,6.32485 -19.825,13.9962 0,6.50202 7.49415,11.6753 22.6596,15.6615 29.9943,6.83864 56.9945,19.1694 80.664,37.0101 23.6695,18.0001 43.8311,46.5063 60.6619,85.6601 6.83864,15.9982 11.6753,25.6715 14.0139,29.0022 2.49805,3.5079 5.98824,5.17327 10.6654,5.17327 9.49614,0 14.3328,-7.83077 14.3328,-23.51l0 -113.989z"
     id="path255" /></glyph>
   <glyph
   unicode="O"
   horiz-adv-x="770"
   id="glyph261"><path
     d="M392.991 653.001c65.8352,0 123.343,-13.1635 172.667,-39.5082 49.3409,-26.327 88.8491,-64.4887 118.684,-114.485 29.8172,-49.837 44.6637,-104.333 44.6637,-163.171 0,-91.0106 -33.9983,-171.834 -102.013,-242.169 -67.9966,-70.4946 -152.328,-105.662 -252.994,-105.662 -91.5066,0 -169.673,29.1616 -234.657,87.3255 -64.843,58.1638 -97.3354,137.003 -97.3354,236.163 0,93.6681 33.6617,174.013 100.826,241 67.1639,67.0045 150.663,100.507 250.159,100.507zm170.009 -332.17c0,98.5047 -16.8308,172.667 -50.3331,222.504 -33.5022,49.837 -76.0045,74.6581 -127.33,74.6581 -51.1658,0 -93.5086,-24.9982 -127.011,-74.9947 -33.5022,-49.837 -50.3331,-123.999 -50.3331,-222.167 0,-94.5007 15.9982,-167.671 48.1716,-219.669 31.9963,-52.1579 74.9947,-78.166 129.172,-78.166 47.835,0 89.3275,23.51 124.655,70.5124 35.3448,46.9846 53.0083,122.83 53.0083,227.323z"
     id="path259" /></glyph>
   <glyph
   unicode="L"
   horiz-adv-x="625"
   id="glyph265"><path
     d="M578.325 -6.00595c-81.3195,4.00397 -207.994,6.00595 -379.828,6.00595 -59.8292,0 -108.497,-1.66537 -146.003,-4.9961 -9.00007,-0.673234 -15.6615,-1.00985 -20.0021,-1.00985 -12.3308,0 -18.4962,4.83665 -18.4962,14.6694 0,4.6772 1.66537,7.83077 4.83665,9.6733 3.33073,1.82482 11.1615,3.66735 23.8289,5.66934 20.1793,2.83467 35.5042,8.8229 46.1697,17.823 10.6654,9.00007 18.3368,22.3407 22.6773,40.1637 4.32287,17.6812 6.82092,63.0005 7.49415,136.011 0.655517,72.8333 0.992134,159.663 0.992134,259.992 0,40.1637 -2.99412,69.3431 -8.8229,87.3432 -5.8465,18.1596 -14.1733,31.3231 -24.9982,39.6676 -11.0021,8.32684 -26.3447,12.9863 -46.1697,13.9962 -13.9962,0.655517 -21.012,5.82879 -21.012,15.5021 0,9.65559 8.00794,14.4922 23.8466,14.4922l161.824 -4.9961c24.9982,0 59.8292,1.32875 104.67,3.8268 16.3348,0.832684 27.3368,1.1693 33.1656,1.1693 13.6596,0 20.4982,-4.65949 20.4982,-13.9962 0,-5.17327 -2.16143,-8.84062 -6.50202,-10.8426 -4.50004,-2.16143 -15.3249,-4.50004 -32.829,-7.15754 -21.8269,-2.83467 -37.1696,-8.32684 -45.9925,-16.4942 -9.00007,-8.16739 -15.006,-22.5002 -18.0001,-42.6795 -3.17128,-20.1616 -4.6772,-65.658 -4.6772,-136.153l0 -297.18c0.336617,-45.6559 4.34059,-72.8333 12.3308,-81.4967 7.84849,-8.66345 22.6773,-13.004 44.5043,-13.004 53.6638,0 93.5086,4.18114 119.499,12.508 26.1675,8.16739 51.1658,23.3329 74.8352,45.1598 23.6695,21.6675 49.0043,58.341 76.164,109.666 5.33272,10.506 11.0021,15.6793 16.6714,15.6793 8.66345,0 13.004,-4.6772 13.004,-14.1733 0,-21.1714 -11.1792,-89.3275 -33.6794,-204.84z"
     id="path263" /></glyph>
   <glyph
   unicode="n"
   horiz-adv-x="541"
   id="glyph269"><path
     d="M198.994 334.509c22.1813,31.1636 46.1697,54.4965 72.0006,70.158 26.0081,15.5021 53.6638,23.3329 83.3392,23.3329 24.8388,0 47.339,-6.32485 67.8371,-18.9923 20.6576,-12.8446 34.4944,-28.0101 41.8291,-45.5141 7.3347,-17.6635 11.0021,-42.6618 11.0021,-74.8175l-4.34059 -195.167c0,-26.8408 2.3386,-44.5043 7.17525,-53.3449 4.9961,-8.8229 15.1655,-14.4922 30.6676,-17.1675 13.004,-2.16143 19.4883,-7.3347 19.4883,-15.5021 0,-8.32684 -6.32485,-12.4903 -18.9923,-12.4903 -10.8249,0 -34.3349,1.32875 -70.8313,4.00397 -12.6674,0.655517 -22.9962,0.992134 -30.827,0.992134 -7.51187,0 -28.8427,-1.66537 -64.347,-4.9961l-23.9884 0c-13.3407,0 -20.0021,4.32287 -20.0021,13.004 0,7.15754 5.98824,11.817 18.1596,13.9962 11.1615,2.32088 20.0021,5.98824 26.6636,11.321 6.50202,5.17327 10.8426,30.8447 13.004,77.0144 2.16143,45.9925 3.17128,91.8255 3.17128,137.162 0,50.4925 -4.00397,84.8274 -11.9942,103.501 -8.00794,18.6557 -23.1734,27.9923 -45.6736,27.9923 -27.6734,0 -53.3272,-20.321 -76.9967,-60.8213 -23.51,-40.6775 -35.3448,-103.005 -35.3448,-187.177 0,-32.4924 1.66537,-56.1619 5.01382,-70.8313 3.15357,-14.6694 7.15754,-23.8289 11.9942,-27.6734 4.65949,-3.66735 14.8289,-6.82092 30.1715,-9.49614 9.15952,-1.66537 13.819,-6.32485 13.819,-14.1556 0,-9.17724 -6.66147,-13.8367 -19.9844,-13.8367 -6.67919,0 -13.8367,0.336617 -21.6675,0.832684 -31.3408,2.83467 -48.3488,4.16342 -50.8469,4.16342 -46.9846,0 -85.6601,-1.32875 -115.654,-4.16342 -4.83665,-0.496067 -8.84062,-0.832684 -11.6753,-0.832684 -12.1714,0 -18.1596,4.65949 -18.1596,13.9962 0,8.00794 5.33272,12.6674 16.1576,13.9962 16.6714,2.00198 27.8329,6.50202 33.6794,13.6773 5.98824,7.15754 10.1517,29.4983 12.9863,67.1639 2.83467,37.4885 4.18114,82.3294 4.18114,134.487 0,66.3489 -2.51577,107.505 -7.3347,123.343 -5.01382,15.6615 -16.8486,27.1597 -35.5042,34.3349 -13.5001,5.15555 -20.1616,10.3288 -20.1616,15.1655 0,7.83077 9.65559,11.8347 28.9845,11.8347 54.1776,0 98.1681,2.3386 131.847,6.99809 12.1536,-28.329 19.1517,-60.1658 21.1537,-95.4929z"
     id="path267" /></glyph>
   <glyph
   unicode="Z"
   horiz-adv-x="635"
   id="glyph273"><path
     d="M553.337 1.50172l-20.5062 -1.50172c-297.164,0 -449.998,0 -458.335,0 -12.1587,0 -19.3256,0.331414 -21.8319,1.17031 -2.49596,0.662828 -3.66627,2.82737 -3.66627,6.16223 1.0046,3.50056 9.16567,18.3313 24.5039,44.337 15.3279,25.8296 45.994,72.9939 92.3298,141.493l127.004 188.336c38.8272,57.1689 65.33,95.3333 79.6636,115.001 42.3381,57.1689 67.8363,96.3379 76.3391,117.662 -57.6764,2.50632 -102.676,3.84233 -134.834,3.84233 -48.8421,0 -85.0077,-3.66627 -108.507,-10.8331 -23.3336,-7.33253 -43.001,-17.9999 -58.826,-32.3336 -15.8354,-14.1679 -35.0056,-37.6673 -57.8421,-70.674 -11.1645,-16.1668 -18.497,-24.1621 -21.9976,-24.1621 -5.16799,0 -7.82965,3.00344 -7.82965,8.83425 0,1.50172 7.16683,25.3324 21.3348,71.3265 14.1679,45.8387 22.6604,71.9997 25.4982,78.338 3.00344,6.33829 5.83081,9.49708 8.32677,9.49708l72.8386 -4.99192c25.9953,-1.33601 79.1665,-2.0092 159.338,-2.0092 110.993,0 181.491,1.83313 211.494,5.4994 3.16915,0.341771 5.66511,0.507478 7.33253,0.507478 3.83197,0 5.83081,-2.16455 5.83081,-6.33829 0,-9.82849 -59.9963,-100.336 -179.999,-271.832 -108.994,-155.837 -183.665,-270.33 -224.326,-343.997 46.6672,-1.83313 86.6647,-2.83773 119.827,-2.83773 45.8387,0 81.8385,2.16455 108,6.504 26.1713,4.4948 49.8364,11.6616 70.8397,21.8319 20.993,10.336 36.497,19.6673 46.8329,28.5016 10.1599,8.66854 26.5028,26.9999 48.9975,54.8283 20.4959,24.8353 32.4993,37.3358 35.9998,37.3358 5.16799,0 7.82965,-3.66627 7.82965,-11.1645l-51.6591 -158.333z"
     id="path271" /></glyph>
   <glyph
   unicode="I"
   horiz-adv-x="385"
   id="glyph277"><path
     d="M53.0083 646.003c11.4981,0 34.9904,-1.00985 70.4946,-2.83467 27.0002,-1.50592 48.4905,-2.16143 64.4887,-2.16143l150.007 4.9961c12.6674,0 19.01,-4.34059 19.01,-13.1635 0,-8.00794 -5.66934,-12.508 -17.1675,-13.8367 -25.8486,-2.67522 -43.0161,-7.3347 -51.6795,-14.3328 -8.66345,-7.17525 -15.3249,-23.3329 -20.0021,-48.6677 -4.81894,-25.4943 -7.15754,-82.8432 -7.15754,-172.507 0,-102.828 1.66537,-182.499 4.9961,-238.661 3.17128,-56.1619 9.83275,-90.8334 19.8427,-103.997 9.9922,-13.1635 26.6636,-19.8427 49.9965,-19.8427 16.1576,0 24.1655,-4.32287 24.1655,-12.8269 0,-11.4981 -8.66345,-17.1675 -26.0081,-17.1675 -4.83665,0 -11.9942,0.15945 -21.4903,0.496067 -61.3351,4.34059 -103.341,6.50202 -125.842,6.50202 -49.1638,0 -85.6601,-1.32875 -109.17,-4.16342 -12.3308,-1.1693 -21.1537,-1.84253 -26.327,-1.84253 -12.1714,0 -18.1596,4.6772 -18.1596,14.0139 0,7.3347 4.9961,11.6576 14.9883,12.9863 27.6734,3.66735 46.1697,11.3387 55.843,23.1734 9.49614,11.8347 15.3249,40.5003 17.1675,85.6601 2.00198,45.337 2.99412,115.513 2.99412,211.006 0,100.507 -1.82482,167.83 -5.33272,201.828 -3.66735,33.9983 -9.49614,54.8331 -17.8407,62.6816 -8.16739,7.83077 -23.9884,12.6674 -47.3212,14.6517 -12.3308,1.00985 -18.4962,6.00595 -18.4962,15.1655 0,8.504 5.98824,12.8446 18.0001,12.8446z"
     id="path275" /></glyph>
   <glyph
   unicode="ó"
   horiz-adv-x="541"
   id="glyph281"><path
     d="M500.992 220.838c0,-60.0064 -22.323,-113.334 -66.8273,-159.999 -44.5043,-46.5063 -101.162,-69.8391 -169.673,-69.8391 -63.1599,0 -116.151,19.5061 -159.167,58.6599 -42.8212,39.1716 -64.3292,91.17 -64.3292,156.332 0,66.1718 22.6773,119.836 67.9966,160.673 45.337,40.8369 100.666,61.3351 165.669,61.3351 66.0123,0 120.172,-19.3289 162.675,-58.0044 42.5023,-38.4983 63.656,-88.3353 63.656,-149.157zm-134.983 -33.5022c0,53.3272 -8.84062,101.658 -26.5041,144.834 -17.6635,43.1578 -42.9984,64.8253 -76.164,64.8253 -29.1794,0 -51.6795,-14.9883 -67.5005,-45.1598 -15.8387,-30.1715 -23.8466,-72.4966 -23.8466,-127.011 0,-59.156 9.00007,-107.824 27.0002,-145.826 18.0001,-38.0023 42.6795,-56.9945 74.1797,-56.9945 30.827,0 54.0004,15.1655 69.4848,45.4964 15.5021,30.3309 23.3506,70.158 23.3506,119.836zm-25.0159 477.659c11.1792,0 20.8348,-4.16342 29.3388,-12.4903 8.504,-8.34455 12.6674,-17.6635 12.6674,-28.0101 0,-20.0021 -16.9903,-42.5023 -51.1658,-67.5005 -26.6636,-19.4883 -51.839,-39.1539 -75.5085,-58.6599 -23.8289,-19.5061 -39.4905,-29.3388 -47.3212,-29.3388 -3.84452,0 -8.00794,2.00198 -12.508,5.82879 -4.32287,4.00397 -6.50202,7.67132 -6.50202,11.3387 0,3.5079 14.51,27.0002 43.6716,70.4946 29.0022,43.5122 50.6697,72.5144 64.843,86.8471 13.9962,14.3328 28.329,21.4903 42.4846,21.4903z"
     id="path279" /></glyph>
   <glyph
   unicode="F"
   horiz-adv-x="614"
   id="glyph285"><path
     d="M581.16 641.007l24.8388 -147.013 1.00985 -6.82092c0,-9.51385 -3.17128,-14.1733 -9.6733,-14.1733 -4.34059,0 -8.66345,3.5079 -13.004,10.6654 -25.1577,38.9944 -53.8233,69.3431 -85.5007,90.9928 -31.8369,21.508 -83.1621,32.3506 -153.834,32.3506 -48.8272,0 -76.164,-5.17327 -82.1699,-15.3426 -5.82879,-10.3288 -8.8229,-90.4968 -8.8229,-240.663 36.3369,0 64.1698,2.49805 83.6581,7.49415 19.5061,5.17327 34.5121,13.9962 45.1775,26.6636 10.6654,12.6674 20.321,36.0003 29.1616,70.1757 2.3386,9.15952 6.00595,13.6596 11.3387,13.6596 9.83275,0 14.6517,-6.1654 14.6517,-18.4962l-3.49018 -156.172c-1.00985,-54.0004 -2.49805,-83.1621 -4.34059,-87.166 -2.00198,-4.16342 -5.49217,-6.1654 -10.6654,-6.1654 -7.99022,0 -12.8269,6.50202 -14.4922,19.6655 -3.66735,30.5081 -13.9962,54.5142 -31.1636,72.0006 -17.3446,17.5041 -57.1717,26.3447 -119.836,26.3447l-0.496067 -180.338c0,-35.327 2.49805,-60.343 7.49415,-75.3313 5.17327,-14.8289 12.6674,-24.9982 22.6596,-30.3309 10.1694,-5.33272 25.8309,-8.34455 47.339,-9.00007 15.5021,-0.336617 25.4943,-1.34647 29.6577,-3.17128 4.18114,-1.84253 6.34257,-5.82879 6.34257,-11.9942 0,-10.506 -7.3347,-15.8387 -22.0041,-15.8387 -13.3229,0 -38.6578,0.992134 -76.164,3.17128 -31.5002,1.82482 -55.1697,2.83467 -71.1679,2.83467l-154.171 -5.01382c-15.6615,0 -23.4923,4.6772 -23.4923,14.0139 0,8.66345 9.6733,13.3229 29.0022,13.9962 33.5022,1.32875 53.5044,16.1576 60.1658,44.3271 6.50202,28.329 9.83275,130.997 9.83275,308.164 0,115.176 -4.16342,183.669 -12.508,205.832 -8.48629,22.1813 -28.825,33.1656 -61.4946,33.1656l-13.1635 -0.496067c-11.8347,0 -17.8407,4.83665 -17.8407,14.51 0,9.00007 9.49614,13.5001 28.329,13.5001l538.835 0z"
     id="path283" /></glyph>
   <glyph
   unicode="T"
   horiz-adv-x="750"
   id="glyph289"><path
     d="M38.9944 650.007c168.999,-4.6772 294.008,-7.0158 375.009,-7.0158 61.6717,0 129.332,1.68308 203.157,5.17327 26.5041,1.1693 48.0122,1.84253 65.0025,1.84253 6.50202,0 17.5041,-0.177167 32.6695,-0.513784 2.3386,-13.3229 5.33272,-40.8192 8.84062,-82.4888l7.3347 -76.9967c0,-12.6674 -5.17327,-19.01 -15.6793,-19.01 -7.99022,0 -15.821,7.83077 -23.3329,23.3329 -12.3308,26.3447 -28.1695,49.0043 -47.6579,67.8371 -19.3289,18.8328 -41.8291,31.3408 -67.5005,37.5062 -25.6715,6.1654 -67.9966,9.31897 -127.011,9.31897 -5.15555,-49.9965 -7.83077,-112.501 -7.83077,-187.496 0,-76.6601 1.50592,-150.663 4.34059,-221.99 2.99412,-71.345 6.50202,-114.343 10.8249,-129.013 4.16342,-14.6694 11.3387,-25.4943 21.508,-32.3329 9.9922,-6.82092 33.8388,-11.4981 71.3273,-14.1556 12.6674,-1.00985 19.01,-5.50989 19.01,-13.5001 0,-9.00007 -5.50989,-13.5001 -16.6714,-13.5001l-13.6596 0.496067 -101.003 2.49805c-78.8392,0 -126.674,-0.336617 -143.665,-0.832684l-61.5123 -2.16143c-4.83665,0 -14.9883,0.3189 -30.3309,0.992134 -7.49415,1.66537 -11.1615,5.66934 -11.1615,11.9942 0,9.33669 6.1654,14.0139 18.4962,14.0139 29.0022,0 50.6697,5.98824 65.3391,18.1596 14.6694,11.9942 23.6695,31.1636 27.0002,57.3312 3.49018,26.3447 5.15555,83.3392 5.15555,171.001 0,138.668 -4.16342,251.506 -12.6674,338.495 -53.6638,0 -92.3216,-2.16143 -116.328,-6.4843 -23.8289,-4.50004 -46.8252,-16.3348 -68.8293,-36.0003 -22.1636,-19.6832 -40.1637,-45.0004 -54.1776,-76.0045 -5.65162,-12.3308 -11.9942,-18.4962 -19.1517,-18.4962 -11.1792,0 -16.8486,4.81894 -16.8486,14.6517 0,2.83467 2.00198,24.3427 6.18312,64.1698 3.98625,39.8448 8.66345,72.8333 13.819,99.1779z"
     id="path287" /></glyph>
   <glyph
   unicode="C"
   horiz-adv-x="666"
   id="glyph293"><path
     d="M555.506 599.833c6.82092,8.504 13.9962,17.8407 21.4903,28.1695 8.84062,12.6674 16.3348,18.9923 22.1636,18.9923 6.67919,0 11.0021,-1.66537 12.8446,-4.83665 2.00198,-3.33073 3.66735,-13.3229 4.9961,-30.1538l9.9922 -152.009 1.00985 -19.4883c0,-13.004 -5.17327,-19.5061 -15.5021,-19.5061 -6.83864,0 -12.3308,5.33272 -16.4942,15.9982 -13.3407,34.4944 -37.5062,72.8333 -72.1777,114.839 -34.831,42.1657 -78.662,63.1599 -131.67,63.1599 -39.1539,0 -72.0006,-11.3387 -98.6642,-33.9983 -26.6636,-22.5002 -47.3212,-53.5044 -62.1678,-92.8354 -14.8289,-39.4905 -22.323,-86.67 -22.323,-141.663 0,-94.0047 20.6576,-168.84 62.1678,-224.329 41.333,-55.5063 92.8354,-83.1798 154.489,-83.1798 66.845,0 128.18,40.1637 183.846,120.509 6.66147,9.65559 13.1635,14.4922 19.1517,14.4922 10.1694,0 15.3426,-5.15555 15.3426,-15.5021 0,-21.4903 -25.6715,-55.6658 -76.9967,-102.332 -51.3429,-46.8252 -115.513,-70.158 -192.669,-70.158 -102.332,0 -183.173,31.5002 -242.329,94.6602 -59.3331,63.1777 -89.0086,140.83 -89.0086,233.01 0,91.8255 29.8349,171.497 89.6641,238.998 59.8292,67.5005 135.497,101.322 226.667,101.322 64.3292,0 129.668,-18.0001 196.177,-54.1599z"
     id="path291" /></glyph>
   <glyph
   unicode="e"
   horiz-adv-x="479"
   id="glyph297"><path
     d="M171.497 222.008c-0.336617,-9.51385 -0.496067,-16.3348 -0.496067,-20.5159 0,-46.1519 11.3387,-85.3235 33.9983,-117.32 22.6596,-32.1735 53.1677,-48.1716 91.6661,-48.1716 39.331,0 78.166,17.008 116.328,50.8291 7.84849,6.83864 13.3407,10.1694 16.5119,10.1694 8.48629,0 12.8269,-4.50004 12.8269,-13.6596 0,-7.17525 -9.83275,-19.8427 -29.3388,-38.3389 -19.4883,-18.4962 -43.4944,-32.4924 -71.8234,-41.8291 -28.329,-9.49614 -57.5083,-14.1733 -87.8393,-14.1733 -66.3312,0 -118.33,20.3387 -155.995,60.8391 -37.5062,40.6598 -56.339,88.4948 -56.339,143.505 0,66.1541 21.508,121.66 64.6659,166.484 43.1755,44.8409 96.8393,67.1816 161.346,67.1816 60.4847,0 106.654,-20.3387 138.332,-61.1757 31.8191,-40.8369 47.6579,-79.4947 47.6579,-116.505 0,-11.6576 -3.17128,-18.6557 -9.33669,-20.9943 -6.1654,-2.3386 -26.1675,-3.33073 -59.9887,-3.33073l-212.175 -2.99412zm2.99412 36.0003c48.1716,-0.673234 76.0045,-1.00985 83.5164,-1.00985 36.6558,0 59.156,2.67522 67.5005,7.83077 8.32684,5.17327 12.4903,15.8387 12.4903,31.6774 0,26.6636 -7.67132,50.3331 -22.9962,70.8313 -15.3426,20.4982 -33.5022,30.6676 -54.6737,30.6676 -50.1559,0 -78.662,-46.6657 -85.8373,-139.997z"
     id="path295" /></glyph>
   <glyph
   unicode="/"
   horiz-adv-x="531"
   id="glyph301"><path
     d="M406.828 696l66.6678 0 -349.833 -714 -66.6678 0 349.833 714z"
     id="path299" /></glyph>
   <glyph
   unicode="s"
   horiz-adv-x="416"
   id="glyph305"><path
     d="M373.999 135.993c0,-23.4923 -6.1654,-46.1519 -18.3368,-68.3332 -12.1536,-22.1636 -30.4904,-40.5003 -54.9926,-54.9926 -24.6616,-14.4922 -53.3449,-21.6675 -86.1739,-21.6675 -40.9964,0 -75.4908,8.32684 -103.837,25.1754 -12.3308,7.15754 -20.321,10.6654 -23.8289,10.6654 -4.32287,0 -7.49415,-2.67522 -9.83275,-8.00794 -5.33272,-12.508 -11.4981,-18.8328 -18.6557,-18.8328 -4.34059,0 -7.3347,1.66537 -9.17724,4.83665 -1.82482,3.33073 -3.33073,17.6635 -4.50004,43.335 -1.1693,25.8309 -1.66537,56.1619 -1.66537,91.4889 0,13.5001 4.00397,20.3387 11.8347,20.3387 7.83077,0 16.3348,-9.9922 25.1754,-30.1715 31.1636,-73.1699 73.6659,-109.826 127.33,-109.826 18.8328,0 34.831,4.83665 47.9945,14.6694 13.1635,9.83275 19.6655,23.9884 19.6655,42.6618 0,15.6615 -6.1654,29.0022 -18.3368,40.3409 -12.1536,11.321 -35.327,25.3171 -69.8214,42.3251 -51.839,25.6715 -87.5027,48.1716 -106.672,67.3411 -19.5061,19.1517 -29.1616,44.6637 -29.1616,76.6601 0,36.833 14.1556,66.6678 42.5023,89.5046 28.329,22.9962 63.1599,34.4944 104.493,34.4944 32.829,0 66.1718,-9.83275 99.9929,-29.4983 4.50004,-2.67522 8.34455,-4.00397 11.1792,-4.00397 4.32287,0 7.49415,3.66735 9.83275,10.8426 3.15357,9.15952 7.83077,13.6596 13.9962,13.6596 4.16342,0 7.15754,-1.50592 8.8229,-4.34059 1.50592,-2.99412 3.84452,-18.319 6.83864,-45.833 2.83467,-27.4963 4.34059,-50.4925 4.34059,-68.8293 0,-12.6674 -3.66735,-18.9923 -11.1792,-18.9923 -7.83077,0 -15.6615,9.15952 -23.8289,27.4963 -27.6557,60.9985 -67.5005,91.5066 -119.499,91.5066 -18.9923,0 -34.1577,-4.6772 -45.9925,-14.1733 -11.6753,-9.49614 -17.5041,-19.6655 -17.5041,-30.3309 0,-13.8367 7.49415,-26.3447 22.5002,-37.8428 14.8289,-11.6576 43.9905,-27.4963 87.3255,-47.3212 37.0101,-17.008 62.6816,-30.012 77.1738,-39.331 14.4922,-9.33669 26.8408,-22.6773 36.833,-40.0043 10.1694,-17.5041 15.1655,-35.8408 15.1655,-55.0103z"
     id="path303" /></glyph>
   <glyph
   unicode="N"
   horiz-adv-x="760"
   id="glyph309"><path
     d="M202.998 644.497c156.332,-176.99 286.674,-319.166 391.007,-426.334 0.336617,22.0041 0.496067,36.3369 0.496067,42.8389l0.496067 193.502c0,45.4964 -2.6575,78.166 -7.83077,97.8315 -5.17327,19.825 -16.1576,35.327 -33.1656,46.6657 -16.8308,11.3387 -36.4964,18.1596 -58.9965,20.0021 -12.0119,1.32875 -18.0001,6.32485 -18.0001,14.9883 0,9.33669 5.49217,14.0139 16.4942,14.0139 6.1654,0 14.1733,-0.673234 23.8289,-1.84253 18.5139,-2.16143 45.6736,-3.17128 81.1778,-3.17128 44.8232,0 78.8215,1.1693 102.154,3.66735 9.83275,0.832684 18.0001,1.34647 24.8388,1.34647 12.3308,0 18.4962,-4.6772 18.4962,-14.1733 0,-9.15952 -8.32684,-14.6694 -24.8211,-16.3348 -20.3387,-1.82482 -39.5082,-10.4883 -57.1717,-25.8309 -17.6635,-15.1655 -26.5041,-45.337 -26.5041,-90.1602l2.49805 -276.008 -3.33073 -207.657c0,-17.8407 -5.49217,-26.8408 -16.4942,-26.8408 -2.83467,0 -6.34257,0.992134 -10.1694,2.99412 -3.8268,1.84253 -26.327,24.5022 -67.1639,67.5005 -40.9964,43.1755 -101.835,110.003 -182.677,200.677 -80.8235,90.4968 -137.499,155.499 -170.169,194.99 -0.655517,-8.8229 -0.992134,-90.6562 -0.992134,-245.323 0,-47.835 2.00198,-85.3412 6.1654,-112.501 4.00397,-27.1774 16.8308,-46.8429 38.1617,-58.9965 21.3486,-12.1714 40.6775,-18.3368 58.0044,-18.3368 11.1615,0 16.6714,-4.16342 16.6714,-12.508 0,-9.65559 -5.82879,-14.4922 -17.5041,-14.4922 -7.49415,0 -16.9903,0.496067 -28.329,1.66537 -19.5061,2.16143 -44.3448,3.33073 -74.6758,3.33073 -48.3311,0 -83.4987,-1.50592 -105.166,-4.50004 -13.6596,-1.66537 -23.4923,-2.49805 -29.3211,-2.49805 -12.6674,0 -19.01,5.33272 -19.01,15.9982 0,7.67132 10.3288,12.3308 30.8447,13.9962 36.833,3.01183 59.9887,15.6793 69.1659,38.0023 9.31897,22.5002 13.9962,53.1677 13.9962,91.8432 0,167.99 -0.832684,270.658 -2.67522,307.987 -1.82482,37.5062 -13.6596,71.345 -35.327,101.499 -21.8269,30.3309 -48.1716,48.3311 -78.8392,54.1776 -12.8269,2.32088 -19.1694,7.49415 -19.1694,15.3249 0,10.8426 6.67919,16.1753 20.0021,16.1753 3.33073,0 8.00794,-0.336617 14.1733,-1.00985 7.49415,-0.655517 20.9943,-0.992134 40.6598,-0.992134 42.3429,0 81.6739,-0.496067 118.17,-1.50592z"
     id="path307" /></glyph>
   <glyph
   unicode=")"
   horiz-adv-x="333"
   id="glyph313"><path
     d="M198.994 200.5c0,98.0086 -18.1596,188.169 -54.6559,270.835 -36.3369,82.666 -67.9966,139.501 -94.6779,170.824 -7.83077,9.00007 -11.6576,15.3426 -11.6576,18.5139 0,4.81894 4.00397,7.3347 12.1714,7.3347 23.6518,0 38.835,-1.84253 45.1598,-5.66934 6.32485,-3.66735 21.6675,-19.6655 45.9925,-48.0122 24.3427,-28.329 48.3488,-66.4907 71.8411,-114.485 23.4923,-48.0122 41.4925,-95.5106 54.0004,-142.672 12.508,-47.1618 18.8328,-99.3374 18.8328,-156.669 0,-57.3312 -6.32485,-110.162 -19.1694,-158.671 -12.8269,-48.3311 -31.1636,-96.1661 -54.6559,-143.168 -23.51,-47.0023 -47.339,-84.4908 -71.345,-112.501 -23.9884,-27.9923 -39.1716,-43.8311 -45.4964,-47.4984 -6.32485,-3.8268 -22.0041,-5.66934 -46.6657,-5.66934 -7.17525,0 -10.6654,2.51577 -10.6654,7.3347 0,3.17128 3.8268,9.51385 11.6576,18.5139 27.6734,32.4924 59.5103,90.1602 95.5106,172.826 35.8231,82.5066 53.8233,172.171 53.8233,268.833z"
     id="path311" /></glyph>
   <glyph
   unicode="V"
   horiz-adv-x="697"
   id="glyph317"><path
     d="M365.158 -13.9962l-39.6499 0 -89.5046 234.321c-22.3407,59.1737 -50.6697,131.511 -85.0046,217.012 -34.3349,85.3235 -56.339,135.161 -66.3312,149.157 -9.83275,14.0139 -18.8328,23.1734 -27.0002,27.6734 -8.00794,4.50004 -20.3387,7.49415 -36.833,8.84062 -10.506,0.3189 -15.8387,4.65949 -15.8387,12.9863 0,9.33669 6.1654,14.0139 18.4962,14.0139l132.166 -5.01382c45.833,0 91.3472,1.34647 136.348,4.18114 12.4903,0.496067 20.0021,0.832684 22.5002,0.832684 15.6615,0 23.4923,-5.33272 23.4923,-16.1753 0,-7.15754 -6.99809,-11.6576 -20.9943,-13.3229 -37.1696,-4.50004 -55.843,-21.1714 -55.843,-50.0142 0,-49.8193 42.8389,-184.501 128.34,-403.834 28.5061,71.8411 55.8252,144.497 81.8333,217.667l47.6579 134.168c5.50989,16.3348 8.34455,31.9963 8.34455,46.8429 0,15.3249 -5.33272,28.329 -15.9982,39.1539 -10.506,10.6654 -22.5002,16.1753 -35.8408,16.5119 -15.006,0.655517 -22.5002,4.9961 -22.5002,13.3229 0,10.506 6.00595,15.6793 18.0001,15.6793 9.17724,0 20.6754,-0.513784 34.3349,-1.50592 27.6734,-2.3386 52.6717,-3.5079 74.6758,-3.5079 23.1557,0 43.6539,1.00985 61.654,3.01183 13.3407,1.32875 24.5022,2.00198 33.1656,2.00198 11.4981,0 17.1675,-5.01382 17.1675,-15.006 0,-8.32684 -5.66934,-13.3407 -17.1675,-15.006 -17.1675,-2.49805 -31.9963,-8.48629 -44.4866,-17.6635 -12.3485,-9.33669 -24.5022,-24.0061 -36.3369,-44.5043 -11.8347,-20.321 -31.6774,-66.4907 -59.1737,-138.332l-86.3334 -223.992c-41.333,-109.507 -69.1659,-179.169 -83.3392,-209.5z"
     id="path315" /></glyph>
   <glyph
   unicode="Í"
   horiz-adv-x="385"
   id="glyph321"><path
     d="M53.0083 646.003c11.4981,0 34.9904,-1.00985 70.4946,-2.83467 27.0002,-1.50592 48.4905,-2.16143 64.4887,-2.16143l150.007 4.9961c12.6674,0 19.01,-4.34059 19.01,-13.1635 0,-8.00794 -5.66934,-12.508 -17.1675,-13.8367 -25.8486,-2.67522 -43.0161,-7.3347 -51.6795,-14.3328 -8.66345,-7.17525 -15.3249,-23.3329 -20.0021,-48.6677 -4.81894,-25.4943 -7.15754,-82.8432 -7.15754,-172.507 0,-102.828 1.66537,-182.499 4.9961,-238.661 3.17128,-56.1619 9.83275,-90.8334 19.8427,-103.997 9.9922,-13.1635 26.6636,-19.8427 49.9965,-19.8427 16.1576,0 24.1655,-4.32287 24.1655,-12.8269 0,-11.4981 -8.66345,-17.1675 -26.0081,-17.1675 -4.83665,0 -11.9942,0.15945 -21.4903,0.496067 -61.3351,4.34059 -103.341,6.50202 -125.842,6.50202 -49.1638,0 -85.6601,-1.32875 -109.17,-4.16342 -12.3308,-1.1693 -21.1537,-1.84253 -26.327,-1.84253 -12.1714,0 -18.1596,4.6772 -18.1596,14.0139 0,7.3347 4.9961,11.6576 14.9883,12.9863 27.6734,3.66735 46.1697,11.3387 55.843,23.1734 9.49614,11.8347 15.3249,40.5003 17.1675,85.6601 2.00198,45.337 2.99412,115.513 2.99412,211.006 0,100.507 -1.82482,167.83 -5.33272,201.828 -3.66735,33.9983 -9.49614,54.8331 -17.8407,62.6816 -8.16739,7.83077 -23.9884,12.6674 -47.3212,14.6517 -12.3308,1.00985 -18.4962,6.00595 -18.4962,15.1655 0,8.504 5.98824,12.8446 18.0001,12.8446zm242.984 218.996c11.1792,0 20.8348,-4.16342 29.3388,-12.4903 8.504,-8.34455 12.6674,-17.6812 12.6674,-28.0101 0,-20.0021 -16.9903,-42.5023 -51.1658,-67.5005 -26.6636,-19.5061 -51.839,-39.1716 -75.5085,-58.6599 -23.8289,-19.5061 -39.4905,-29.3388 -47.3212,-29.3388 -3.84452,0 -8.00794,2.00198 -12.508,5.82879 -4.32287,4.00397 -6.50202,7.67132 -6.50202,11.3387 0,3.5079 14.51,27.0002 43.6716,70.4946 29.0022,43.5122 50.6697,72.4966 64.843,86.8471 13.9962,14.3328 28.329,21.4903 42.4846,21.4903z"
     id="path319" /></glyph>
   <glyph
   unicode="E"
   horiz-adv-x="656"
   id="glyph325"><path
     d="M562.168 639.997c10.506,-50.9886 20.6576,-101.835 30.827,-152.824 0,-9.51385 -4.65949,-14.1733 -14.1556,-14.1733 -5.17327,0 -11.0021,4.50004 -17.5041,13.6596 -33.5022,49.0043 -64.3292,81.1778 -92.1621,96.8393 -27.8329,15.6615 -67.8371,23.51 -120.332,23.51 -29.3388,0 -57.6678,-2.51577 -85.0046,-7.3347 -5.82879,-57.6678 -8.84062,-120.845 -8.84062,-189.515 0,-11.817 0.336617,-31.5002 1.00985,-59.156l37.1519 -0.496067c23.1734,0 43.1755,3.15357 60.0064,9.49614 16.8308,6.32485 31.0042,19.825 42.8389,40.5003 11.6576,20.6576 18.3368,33.9983 20.0021,39.8271 2.99412,10.506 7.99022,15.6615 15.1655,15.6615 9.15952,0 13.8367,-3.8268 13.8367,-11.6576 0,-2.3386 -0.336617,-4.9961 -1.00985,-7.83077 -4.00397,-20.3387 -6.00595,-80.664 -6.00595,-181.33 0,-14.0139 1.34647,-26.8408 3.84452,-38.1794 0.832684,-3.33073 1.1693,-5.98824 1.1693,-8.32684 0,-9.15952 -5.17327,-13.6596 -15.5021,-13.6596 -7.17525,0 -12.6674,8.66345 -16.5119,25.9904 -6.4843,30.3309 -21.4903,53.5044 -44.6637,69.3431 -23.1557,15.821 -59.8292,23.9884 -109.826,24.6616 -1.66537,-54.6737 -2.49805,-90.6739 -2.49805,-107.841 0,-74.162 1.1693,-118.33 3.49018,-132.326 2.17915,-13.9962 10.506,-25.3348 24.8388,-33.8388 14.3328,-8.66345 38.6755,-13.004 72.9927,-13.004 124.176,0 205.832,39.5082 245.004,118.347 5.50989,11.1615 11.3387,16.6537 17.6635,16.6537 9.33669,0 14.0139,-3.8268 14.0139,-11.6576 0,-5.33272 -1.00985,-11.9942 -3.01183,-20.1616l-31.6597 -140.174 -176.83 0.496067c-49.837,0.336617 -96.3433,1.50592 -139.501,3.5079 -43.1755,2.00198 -76.8372,2.99412 -101.339,2.99412 -27.3368,0 -68.4927,-1.32875 -123.503,-4.16342 -6.82092,-0.496067 -11.9942,-0.832684 -15.1655,-0.832684 -15.3249,0 -22.9962,4.9961 -22.9962,15.1655 0,9.15952 6.1654,13.8367 18.6734,13.8367 31.6597,0 52.9906,8.504 63.8332,25.6537 11.0021,17.008 16.4942,51.839 16.4942,104.511l2.99412 250.833c0,85.8373 -1.1693,138.491 -3.15357,158.157 -2.17915,19.6832 -7.84849,33.0062 -17.008,40.0043 -9.00007,6.99809 -26.1675,12.3308 -51.1658,15.8387 -10.506,1.32875 -15.6615,5.82879 -15.6615,13.5001 0,9.6733 5.98824,14.4922 18.0001,14.4922l117.656 -3.66735 393.505 -1.32875z"
     id="path323" /></glyph>
   <glyph
   unicode="g"
   horiz-adv-x="562"
   id="glyph329"><path
     d="M388.668 384.664c38.4983,33.5022 72.0006,50.3331 100.826,50.3331 19.1694,0 34.831,-5.49217 47.1795,-16.6714 12.1536,-11.1615 18.319,-23.8289 18.319,-38.3212 0,-12.0119 -4.16342,-22.9962 -12.6674,-33.0062 -8.48629,-9.9922 -19.9844,-15.006 -34.6538,-15.006 -20.4982,0 -35.3448,11.1792 -44.5043,33.6794 -6.1654,14.8289 -12.3308,22.323 -18.1596,22.323 -6.83864,0 -19.8427,-7.83077 -38.835,-23.4923 17.1675,-26.0081 25.8309,-54.1776 25.8309,-84.1719 0,-30.4904 -8.84062,-58.6599 -26.3447,-84.3314 -17.4864,-25.4943 -38.8172,-43.6716 -63.656,-54.4965 -24.8388,-10.8426 -60.343,-18.3368 -106.176,-22.5002 -39.331,-3.5079 -63.1599,-9.6733 -71.664,-18.0001 -8.8229,-8.84062 -13.1635,-18.6734 -13.1635,-29.3388 0,-13.004 9.00007,-21.4903 26.8408,-25.3348 17.6635,-4.00397 66.4907,-6.99809 146.322,-9.33669 122.511,-3.8268 183.846,-43.9905 183.846,-120.332 0,-51.9984 -22.8368,-94.9968 -68.6698,-129.332 -45.833,-34.1577 -115.176,-51.3252 -207.675,-51.3252 -69.8214,0 -120.154,10.1694 -151.159,30.3309 -31.0042,20.3387 -46.5063,44.1677 -46.5063,71.3273 0,28.8427 12.6674,53.3449 37.8428,73.1699 25.1577,20.0021 63.0005,35.6637 113.334,47.0023 -38.3389,3.8268 -67.1816,12.3308 -86.3334,25.1577 -19.1694,12.8446 -28.8427,30.3487 -28.8427,52.5122 0,23.3329 9.00007,42.9984 26.8408,58.9965 17.823,15.9982 44.4866,28.1695 79.8313,36.6735 -37.0101,11.321 -65.0025,27.9923 -83.6759,49.8193 -18.6557,21.8447 -27.9923,49.1815 -27.9923,81.6739 0,47.339 18.8328,87.0066 56.6579,119.162 37.8428,32.1735 84.5085,48.1716 139.838,48.1716 26.327,0 50.1736,-3.66735 71.3273,-11.1615 21.1714,-7.51187 39.8448,-19.01 55.843,-34.1755zm-206.665 -102.332c0,-42.1657 7.15754,-74.6581 21.3309,-97.8315 14.3328,-22.9962 31.1636,-34.4944 50.8291,-34.4944 20.3387,0 35.5042,9.83275 45.6736,29.6577 10.1694,19.8427 15.1655,49.5004 15.1655,89.0086 0,41.8291 -6.1654,74.6581 -18.3368,98.487 -12.3308,23.8466 -28.1695,35.8408 -47.4984,35.8408 -19.5061,0 -35.6637,-10.8426 -48.3311,-32.3329 -12.508,-21.6675 -18.8328,-51.0063 -18.8328,-88.3353zm-51.9984 -432.34c0,-22.1636 11.0021,-41.4925 32.9884,-58.1638 22.1813,-16.4942 53.3449,-24.8211 93.5086,-24.8211 48.6677,0 88.9909,10.9843 121.164,33.1656 32.1735,22.1636 48.3311,48.3311 48.3311,78.4849 0,24.5022 -12.8269,42.5023 -38.6578,54.0004 -25.8309,11.5158 -59.0142,17.3446 -99.5146,17.3446 -47.9945,0 -86.3334,-9.49614 -114.999,-28.5061 -28.4884,-18.9923 -42.8212,-42.8389 -42.8212,-71.5045z"
     id="path327" /></glyph>
   <glyph
   unicode="B"
   horiz-adv-x="635"
   id="glyph333"><path
     d="M388.332 348.664c67.3411,-14.3328 117.834,-36.1597 151.336,-65.658 33.5022,-29.4983 50.3331,-66.5084 50.3331,-111.509 0,-37.329 -12.3308,-70.9907 -36.833,-100.826 -24.6616,-30.012 -54.8331,-49.9965 -90.4968,-60.343 -35.6637,-10.1694 -87.6621,-15.3249 -155.676,-15.3249 -16.6537,0 -42.6618,0.832684 -78.3254,2.6575 -29.3388,1.50592 -52.1756,2.3386 -68.8293,2.3386 -22.1813,0 -51.9984,-1.32875 -89.5046,-4.16342 -15.3426,-1.1693 -26.0081,-1.84253 -32.3329,-1.84253 -12.6674,0 -19.01,4.6772 -19.01,14.1733 0,7.3347 5.01382,11.4981 15.1832,12.8269 20.4982,2.67522 35.4865,6.1654 44.8232,10.506 9.15952,4.34059 16.6714,11.6576 22.5002,22.1636 5.66934,10.3288 8.504,27.1774 8.504,50.6697l3.8268 227.34c0,70.8313 -0.655517,127.33 -2.32088,169.655 -1.68308,42.5023 -4.50004,69.8391 -8.68117,82.1699 -3.98625,12.3308 -9.65559,20.8348 -16.9903,25.8309 -7.3347,4.83665 -18.3368,7.67132 -33.0062,8.66345 -13.004,0.673234 -21.4903,2.17915 -25.1577,4.50004 -3.84452,2.17915 -5.66934,6.00595 -5.66934,11.3387 0,6.83864 3.8268,11.0021 11.4981,12.6674 7.67132,1.66537 29.1616,2.49805 64.6659,2.49805 65.1619,0 126.16,2.3386 182.836,6.99809 33.5022,2.67522 60.3253,4.00397 80.664,4.00397 59.8292,0 107.824,-13.1635 143.665,-39.6676 35.8408,-26.5041 53.6638,-61.9906 53.6638,-106.495 0,-76.6778 -56.8351,-131.83 -170.665,-165.173zm-134.328 7.3347c112.005,0 167.99,48.1716 167.99,144.497 0,42.5023 -9.9922,74.162 -29.8349,95.174 -19.825,20.8348 -42.9984,31.3231 -69.3253,31.3231 -18.8328,0 -41.8291,-4.50004 -68.8293,-13.6596 -2.67522,-32.6695 -3.84452,-67.0045 -3.84452,-102.668 0,-30.1715 1.1693,-81.6739 3.84452,-154.667zm-0.177167 -38.0023c-2.49805,-68.4927 -3.8268,-125.505 -3.8268,-171.161 0,-60.343 2.49805,-94.9968 7.3347,-103.678 4.83665,-8.8229 20.3387,-13.1635 46.5063,-13.1635 46.8252,0 81.9928,12.508 105.166,37.5062 23.3329,24.9982 34.9904,59.3331 34.9904,103.164 0,43.6716 -11.9942,79.6719 -36.1597,107.664 -24.1655,28.0101 -60.8391,42.1657 -110.003,42.1657 -10.6654,0 -25.3348,-0.832684 -44.0082,-2.49805z"
     id="path331" /></glyph>
   <glyph
   unicode="u"
   horiz-adv-x="541"
   id="glyph337"><path
     d="M185.494 418.999c1.66537,-33.5022 2.49805,-78.9987 2.49805,-136.826 0,-87.6798 0.8504,-143.842 2.51577,-168.344 1.4882,-24.5022 7.99022,-42.9984 19.3289,-55.3292 11.1615,-12.3308 23.9884,-18.4962 38.3389,-18.4962 16.9903,0 34.1577,6.32485 51.6618,18.9923 17.5041,12.6674 30.3309,29.3388 38.6578,49.6776 8.34455,20.4982 12.508,54.0004 12.508,100.489l0.992134 107.664c0,28.6656 -1.4882,47.4984 -4.65949,56.4985 -2.99412,9.17724 -13.5001,14.0139 -31.1636,14.6694 -19.5061,1.00985 -29.1794,6.00595 -29.1794,15.1655 0,5.66934 2.3386,9.17724 7.0158,10.6654 4.65949,1.50592 17.1497,2.17915 37.1519,2.17915 45.0004,0 87.0066,0.992134 125.842,2.99412 1.32875,-12.6674 2.00198,-82.1699 2.00198,-208.508 0,-101.499 0.992134,-156.828 2.99412,-166.165 1.84253,-9.31897 12.508,-14.6517 31.8369,-16.3348 11.4981,-1.32875 17.1675,-5.98824 17.1675,-13.9962 0,-9.33669 -6.50202,-13.9962 -19.5061,-13.9962 -2.6575,0 -6.66147,0.15945 -12.1714,0.336617 -9.15952,0.496067 -19.825,0.655517 -32.1558,0.655517 -43.335,0 -67.1639,-0.15945 -71.8411,-0.496067 -5.15555,-0.336617 -9.49614,-0.496067 -12.9863,-0.496067 -6.34257,0 -10.1694,0.992134 -11.5158,3.17128 -1.4882,2.16143 -2.32088,8.504 -2.32088,18.9923 0,17.1675 1.1693,34.4944 3.49018,51.9984 -22.5002,-27.4963 -46.1697,-47.9945 -70.9907,-61.654 -24.9982,-13.6773 -51.1658,-20.5159 -78.5026,-20.5159 -83.0026,0 -124.495,46.5063 -124.495,139.342l0 150.503c0,51.9984 -1.84253,82.4888 -5.66934,91.3295 -3.66735,9.00007 -13.6773,14.4922 -29.6754,16.8308 -14.4922,2.00198 -21.6675,6.1654 -21.6675,12.8446 0,8.8229 6.34257,13.1635 19.01,13.1635 87.3255,0 135.834,0.992134 145.489,2.99412z"
     id="path335" /></glyph>
   <glyph
   unicode="d"
   horiz-adv-x="552"
   id="glyph341"><path
     d="M349.993 382.007c0,94.3236 -0.496067,157.165 -1.4882,188.665 -0.832684,31.5002 -3.5079,49.9965 -7.67132,55.3292 -4.16342,5.33272 -15.5021,9.6733 -33.9983,13.004 -12.508,2.00198 -18.8328,6.50202 -18.8328,13.5001 0,5.49217 2.16143,8.8229 6.66147,10.3288 4.34059,1.50592 18.4962,2.16143 42.1657,2.16143l129.172 0 -1.00985 -346.662 -2.49805 -215.328c0,-33.1656 2.83467,-54.1776 8.504,-62.841 5.66934,-8.8229 18.6734,-14.4922 38.9944,-17.1675 12.0119,-1.32875 18.0001,-5.82879 18.0001,-13.5001 0,-8.32684 -6.32485,-12.4903 -19.1517,-12.4903l-158.848 0 0 66.8273c-13.9962,-24.9982 -30.9865,-43.8311 -51.1658,-56.1619 -20.0021,-12.508 -43.335,-18.6734 -69.9986,-18.6734 -49.6598,0 -93.1543,19.3289 -130.66,58.0044 -37.5062,38.6578 -56.1619,88.4948 -56.1619,149.493 0,67.0045 21.3309,121.838 64.1521,165.013 42.8389,42.9984 90.5145,64.4887 143.168,64.4887 19.6655,0 38.0023,-3.66735 54.6737,-11.0021 16.6714,-7.3347 31.9963,-18.3368 45.9925,-32.9884zm-175.997 -171.515c0,-61.9906 8.16739,-107.487 24.6793,-136.33 16.3171,-28.825 37.1519,-43.1578 62.6639,-43.1578 24.325,0 45.1598,13.6596 62.4867,41.1558 17.5041,27.514 26.1675,77.3333 26.1675,149.174 0,58.5005 -7.3347,102.491 -21.9864,131.67 -14.51,29.3211 -36.6735,43.9905 -66.1718,43.9905 -29.3388,0 -51.3429,-15.5021 -65.8352,-46.6657 -14.6694,-31.0042 -22.0041,-77.6699 -22.0041,-139.838z"
     id="path339" /></glyph>
   <glyph
   unicode=" "
   horiz-adv-x="265"
   id="glyph343" />
   <glyph
   unicode="S"
   horiz-adv-x="541"
   id="glyph347"><path
     d="M401.336 621.997c4.16342,4.16342 8.504,10.6654 12.6674,19.5061 4.9961,10.3288 10.4883,15.5021 16.6714,15.5021 8.8229,0 14.3328,-7.17525 16.3171,-21.508l17.008 -134.168 2.00198 -16.1576c0,-8.84062 -4.50004,-13.1635 -13.3407,-13.1635 -6.50202,0 -11.321,1.4882 -14.1556,4.65949 -3.01183,3.17128 -8.504,13.1635 -16.6714,30.1715 -13.9962,29.0022 -37.1696,55.1697 -69.3253,78.3254 -32.1735,23.1734 -64.6836,34.831 -97.176,34.831 -31.5002,0 -57.8272,-9.00007 -78.8392,-27.1597 -20.9943,-18.0001 -31.5002,-40.8369 -31.5002,-68.1738 0,-21.8269 9.83275,-41.4925 29.3388,-59.156 19.6655,-17.5041 57.3312,-34.1755 112.997,-50.0142 87.5027,-24.8211 146.676,-55.4886 177.663,-91.985 30.6676,-36.3369 46.0102,-76.8372 46.0102,-121.342 0,-45.4964 -11.1615,-83.8353 -33.6617,-114.662 -22.5002,-30.8447 -49.3409,-55.1697 -80.6817,-72.8333 -31.3231,-17.8407 -71.3273,-26.6636 -120.154,-26.6636 -27.6734,0 -56.339,3.98625 -85.9967,11.8347 -29.6754,7.83077 -60.343,19.6655 -91.8432,35.327 -6.50202,-7.3347 -12.1714,-16.8308 -16.6714,-28.6656 -5.15555,-13.004 -11.6576,-19.5061 -19.4883,-19.5061 -8.00794,0 -12.8446,8.84062 -14.51,26.3447l-13.9962 176.99c-0.673234,7.67132 -0.992134,12.508 -0.992134,14.51 0,9.49614 4.81894,14.1556 14.4922,14.1556 6.99809,0 13.8367,-8.16739 20.3387,-24.5022 19.825,-48.9866 46.8252,-89.8235 81.0006,-122.493 33.8211,-32.6695 73.4888,-49.0043 118.666,-49.0043 38.4983,0 69.5025,11.4981 93.1543,34.3349 23.51,22.8368 35.3448,48.8272 35.3448,77.8294 0,29.0022 -11.0021,53.5044 -32.829,73.5065 -21.8447,19.825 -61.1757,38.9944 -117.834,57.1717 -55.1697,17.823 -96.1661,34.9904 -122.847,51.3252 -26.823,16.1753 -48.3311,38.6755 -64.3292,67.0045 -16.1576,28.5061 -24.1655,57.4906 -24.1655,86.67 0,51.1658 19.8427,94.6602 59.3331,130.501 39.5082,35.8231 93.172,53.6638 161.169,53.6638 36.6735,0 85.6601,-11.0021 146.836,-33.0062z"
     id="path345" /></glyph>
   <glyph
   unicode="r"
   horiz-adv-x="406"
   id="glyph351"><path
     d="M191.003 330.841c16.1576,32.829 34.831,57.4906 56.0024,73.6659 21.1537,16.3348 44.6637,24.4844 70.6541,24.4844 24.6793,0 44.3448,-7.15754 59.1737,-21.4903 14.8289,-14.1733 22.1636,-32.1735 22.1636,-53.5044 0,-16.9903 -5.33272,-31.3231 -15.8387,-43.1578 -10.6654,-11.8347 -23.4923,-17.8407 -38.8172,-17.8407 -11.3387,0 -20.8348,2.99412 -28.3467,8.84062 -7.49415,5.82879 -15.5021,16.1576 -23.9884,30.9865 -11.4981,21.508 -21.8447,32.1735 -30.5081,32.1735 -11.9942,0 -25.4943,-12.1714 -40.6598,-36.6735 -15.1655,-24.325 -22.8368,-71.8234 -22.8368,-142.159 0,-88.8314 2.99412,-138.332 9.00007,-148.342 6.1654,-9.83275 19.5061,-14.8289 40.0043,-14.8289 18.0001,0 27.0002,-4.83665 27.0002,-14.4922 0,-9.00007 -8.84062,-13.5001 -26.5041,-13.5001 -9.6733,0 -24.0061,0.832684 -42.5023,2.6575 -17.008,1.50592 -33.0062,2.3386 -47.9945,2.3386 -32.3329,0 -64.347,-1.1693 -96.0067,-3.5079 -13.3407,-0.992134 -21.1714,-1.4882 -23.4923,-1.4882 -13.6773,0 -20.4982,4.9961 -20.4982,14.9883 0,8.68117 7.99022,13.3407 23.9884,14.0139 15.6615,0.655517 26.5041,4.32287 32.829,11.0021 6.18312,6.66147 9.17724,21.3309 9.17724,43.8311l2.00198 122.334c0,24.6616 -1.00985,55.4886 -3.01183,92.3216 -1.82482,37.0101 -3.66735,58.8371 -5.33272,65.8352 -1.66537,6.99809 -5.82879,13.3407 -12.4903,18.8328 -6.66147,5.66934 -15.8387,8.84062 -27.1774,9.83275 -11.817,1.34647 -19.1517,2.83467 -22.323,4.6772 -3.17128,1.66537 -4.6772,5.33272 -4.6772,10.8249 0,8.66345 8.16739,13.1635 24.5022,13.5001 30.012,0.336617 81.1778,4.34059 153.178,11.9942l3.33073 -98.1504z"
     id="path349" /></glyph>
   <glyph
   unicode="."
   horiz-adv-x="239"
   id="glyph355"><path
     d="M187.992 58.341c0,-19.01 -6.66147,-35.0081 -19.9844,-48.3488 -13.3407,-13.3229 -29.3388,-19.9844 -48.1716,-19.9844 -18.6734,0 -34.4944,6.66147 -47.835,19.9844 -13.3407,13.3407 -20.0021,29.3388 -20.0021,48.3488 0,18.4962 6.66147,34.3172 20.0021,47.6579 13.3407,13.3407 29.1616,20.0021 47.835,20.0021 18.8328,0 34.831,-6.66147 48.1716,-20.0021 13.3229,-13.3407 19.9844,-29.1616 19.9844,-47.6579z"
     id="path353" /></glyph>
   <glyph
   unicode="a"
   horiz-adv-x="479"
   id="glyph359"><path
     d="M268 46.5063c-20.3387,-19.1694 -40.6598,-33.5022 -61.3351,-43.1755 -20.4982,-9.49614 -41.333,-14.3328 -62.1678,-14.3328 -33.3251,0 -59.156,10.0099 -77.3333,30.1715 -18.1596,20.0021 -27.1597,44.5043 -27.1597,73.3293 0,22.1636 5.49217,42.0062 16.3348,59.4926 11.0021,17.5041 24.5022,31.0042 40.6598,40.6775 15.9982,9.6733 42.6618,21.1714 79.8313,34.4944 31.3408,11.1615 52.1756,19.8427 62.841,26.3447 10.4883,6.32485 19.4883,15.6615 26.6636,27.8329 7.15754,12.1536 10.6654,27.9923 10.6654,47.3212 0,21.3309 -5.33272,38.4983 -16.1753,51.1658 -10.6654,12.8446 -25.4943,19.1694 -44.4866,19.1694 -16.3348,0 -27.8329,-4.00397 -34.6715,-12.1714 -6.83864,-8.48629 -11.9942,-21.8269 -15.6615,-40.3232 -7.51187,-37.0101 -27.3368,-55.5063 -59.8469,-55.5063 -13.3229,0 -24.6616,4.00397 -33.9983,11.8347 -9.49614,7.83077 -14.1556,19.01 -14.1556,33.6617 0,31.3408 16.9903,54.8331 50.9886,70.3352 33.9983,15.5021 74.6758,23.1734 121.838,23.1734 40.6775,0 73.8431,-6.1654 99.3374,-18.6734 25.4943,-12.3308 41.8291,-26.823 49.0043,-43.1578 7.15754,-16.3348 10.8249,-41.8291 10.8249,-76.5006l-0.992134 -116.328c0,-61.1757 2.00198,-100.507 6.1654,-117.834 4.00397,-17.3446 12.6674,-26.0081 25.9904,-26.0081 1.84253,0 4.50004,0.15945 7.67132,0.496067 6.50202,0.673234 11.0021,1.00985 13.1635,1.00985 13.3407,0 20.0021,-3.66735 20.0021,-11.1792 0,-4.81894 -2.83467,-8.8229 -8.32684,-12.3308 -5.50989,-3.33073 -22.0041,-7.67132 -49.837,-12.8269 -27.6734,-5.17327 -52.6717,-7.67132 -74.9947,-7.67132 -22.3407,0 -37.6657,4.34059 -46.0102,13.004 -8.32684,8.66345 -13.1635,23.4923 -14.8289,44.5043zm6.00595 196.496c-7.83077,-9.49614 -26.6813,-22.1636 -56.4985,-37.8428 -27.3368,-14.3328 -45.5141,-27.1597 -54.6737,-38.3212 -9.15952,-11.4981 -13.8367,-28.0101 -13.8367,-49.5004 0,-22.9962 4.83665,-40.5003 14.51,-52.3351 9.65559,-11.9942 21.6675,-18.0001 35.6637,-18.0001 19.1694,0 36.833,8.8229 53.1677,26.327 16.4942,17.5041 24.6616,48.3311 24.6616,92.4988 0,13.8367 -0.992134,39.5082 -2.99412,77.1738z"
     id="path357" /></glyph>
   <glyph
   unicode="M"
   horiz-adv-x="937"
   id="glyph363"><path
     d="M254.996 641.007c8.504,-20.1793 24.0061,-51.9984 46.8429,-95.67 22.6596,-43.6716 45.1598,-87.9987 67.5005,-132.999 22.1636,-45.0004 47.3212,-92.3393 75.1541,-141.999 22.3407,-39.331 35.0081,-62.345 38.0023,-69.1659 81.4967,182.163 143.346,328.821 185.334,439.834 78.166,0 150.344,1.82482 216.498,5.49217 6.1654,0.336617 10.6654,0.496067 13.6773,0.496067 13.3229,0 20.0021,-5.15555 20.0021,-15.5021 0,-9.00007 -5.17327,-13.5001 -15.5021,-13.5001 -37.0101,0 -61.1757,-12.4903 -72.6738,-37.6657 -11.6576,-25.1577 -17.3269,-86.4928 -17.3269,-183.828l-0.496067 -238.661c0,-48.6677 6.4843,-82.666 19.3289,-102.172 12.8269,-19.5061 33.6617,-29.6577 62.6639,-30.6676 13.9962,-0.336617 20.9943,-4.9961 20.9943,-13.9962 0,-4.6772 -2.99412,-8.84062 -8.8229,-11.9942l-136.844 0.992134c-41.9885,0 -99.3374,-1.66537 -171.993,-4.9961 -6.1654,4.32287 -9.33669,8.8229 -9.33669,13.8367 0,7.49415 8.504,12.4903 25.3348,15.1655 17.1675,2.99412 29.4983,7.15754 37.1696,12.6674 7.67132,5.49217 13.3229,15.6615 17.1675,30.6676 4.00397,14.9883 5.82879,36.833 5.82879,65.658l2.00198 217.667c0,111.332 0.15945,175.501 0.496067,192.332 -88.8314,-205.159 -144.001,-336.156 -165.173,-392.991l-49.5004 -132.007c-5.49217,-13.9962 -10.9843,-20.9943 -16.4942,-20.9943 -5.82879,0 -12.8269,8.66345 -20.8348,25.8309 -23.8289,49.9965 -108.834,215.169 -254.996,495.323 -1.66537,-80.664 -2.49805,-189.657 -2.49805,-326.66 0,-72.3372 4.16342,-117.993 12.3308,-137.003 8.16739,-19.1694 31.0042,-30.1715 68.4927,-33.5022 12.508,-1.32875 18.6734,-5.82879 18.6734,-13.5001 0,-8.32684 -4.9961,-12.4903 -15.1655,-12.4903 -3.5079,0 -7.49415,0.15945 -11.6576,0.496067 -39.0121,2.99412 -67.0045,4.50004 -84.0125,4.50004 -46.1697,0 -81.1601,-1.32875 -104.83,-4.16342 -4.50004,-0.496067 -8.00794,-0.832684 -10.3288,-0.832684 -11.3387,0 -17.008,4.65949 -17.008,13.9962 0,4.50004 1.32875,7.67132 4.16342,9.33669 2.67522,1.82482 10.1694,4.00397 22.1813,6.50202 31.3231,5.98824 51.6618,17.1675 61.3174,33.6617 9.51385,16.6714 14.3505,43.6716 14.3505,81.3373l2.49805 278.329c0,63.3371 -1.66537,105.166 -5.01382,125.664 -3.15357,20.4982 -11.1615,36.3369 -23.6518,47.339 -12.6674,11.0021 -33.3428,19.3289 -61.8489,24.8388 -10.6654,2.32088 -15.9982,7.6536 -15.9982,16.1576 0,9.15952 5.8465,13.8367 17.6812,13.8367 2.49805,0 6.1654,-0.177167 10.6654,-0.496067 33.1656,-3.01183 101.818,-4.50004 205.655,-4.50004z"
     id="path361" /></glyph>
   <glyph
   unicode="o"
   horiz-adv-x="541"
   id="glyph367"><path
     d="M500.992 220.838c0,-60.0064 -22.323,-113.334 -66.8273,-159.999 -44.5043,-46.5063 -101.162,-69.8391 -169.673,-69.8391 -63.1599,0 -116.151,19.5061 -159.167,58.6599 -42.8212,39.1716 -64.3292,91.17 -64.3292,156.332 0,66.1718 22.6773,119.836 67.9966,160.673 45.337,40.8369 100.666,61.3351 165.669,61.3351 66.0123,0 120.172,-19.3289 162.675,-58.0044 42.5023,-38.4983 63.656,-88.3353 63.656,-149.157zm-134.983 -33.5022c0,53.3272 -8.84062,101.658 -26.5041,144.834 -17.6635,43.1578 -42.9984,64.8253 -76.164,64.8253 -29.1794,0 -51.6795,-14.9883 -67.5005,-45.1598 -15.8387,-30.1715 -23.8466,-72.4966 -23.8466,-127.011 0,-59.156 9.00007,-107.824 27.0002,-145.826 18.0001,-38.0023 42.6795,-56.9945 74.1797,-56.9945 30.827,0 54.0004,15.1655 69.4848,45.4964 15.5021,30.3309 23.3506,70.158 23.3506,119.836z"
     id="path365" /></glyph>
   <glyph
   unicode="("
   horiz-adv-x="333"
   id="glyph371"><path
     d="M133.991 200.5c0,-97.9909 18.3368,-188.169 54.8508,-270.658 36.6558,-82.3471 68.3332,-139.342 94.9968,-171.001 7.49415,-9.00007 11.1615,-15.1655 11.1615,-18.0001 0,-5.17327 -3.33073,-7.84849 -10.1694,-7.84849 -24.8388,0 -40.3232,1.84253 -46.6657,5.33272 -6.32485,3.66735 -21.6675,19.6832 -45.9925,48.3488 -24.3427,28.6656 -48.1716,66.3312 -71.345,112.997 -23.1557,46.6657 -41.333,94.0047 -54.3193,142.159 -13.004,48.1716 -19.5061,101.162 -19.5061,158.671 0,56.9945 6.32485,109.33 18.9923,157.342 12.6674,47.9945 31.0042,96.1661 55.0103,144.32 24.1655,48.0122 47.9945,85.8373 71.664,113.334 23.6695,27.4963 38.835,43.1755 45.1598,46.8429 6.34257,3.8268 21.1714,5.66934 44.5043,5.66934 8.504,0 12.6674,-2.51577 12.6674,-7.3347 0,-3.17128 -3.66735,-9.51385 -11.1615,-18.5139 -28.0101,-32.4924 -60.0064,-90.0007 -96.0067,-172.49 -35.8408,-82.5066 -53.841,-172.171 -53.841,-269.169z"
     id="path369" /></glyph>
   <glyph
   unicode="Á"
   horiz-adv-x="697"
   id="glyph375"><path
     d="M321.008 662.001l35.1499 0c42.8389,-92.9948 103.501,-239.494 181.844,-439.338 36.1597,-91.8255 60.9985,-147.491 74.6581,-166.997 13.5001,-19.5061 35.1676,-31.3408 64.6659,-35.6637 9.83275,-1.32875 14.6694,-5.50989 14.6694,-12.8269 0,-10.1694 -6.32485,-15.1832 -18.9923,-15.1832 -6.83864,0 -24.5022,1.1693 -53.1677,3.5079 -33.8388,2.99412 -62.3273,4.50004 -85.3412,4.50004 -22.5002,0 -51.8213,-1.32875 -87.8216,-4.00397 -27.0002,-2.00198 -44.8409,-2.99412 -53.1677,-2.99412 -15.006,0 -22.5002,4.65949 -22.5002,13.9962 0,6.99809 5.15555,11.0021 15.6615,11.9942 40.0043,3.66735 60.0064,19.5061 60.0064,47.6756 0,13.1635 -6.00595,37.1696 -17.8407,72.16 -11.8347,34.831 -24.5022,66.6678 -38.0023,95.174 -20.9943,0.336617 -37.4885,0.496067 -49.1638,0.496067 -65.3391,0 -116.168,-0.15945 -152.505,-0.496067 -28.1695,-76.8372 -42.3251,-127.666 -42.3251,-152.505 0,-17.823 6.99809,-31.5002 20.9943,-41.333 13.9962,-9.83275 29.1616,-15.5021 45.4964,-17.1675 12.508,-1.32875 18.6734,-6.32485 18.6734,-14.9883 0,-8.68117 -6.66147,-13.004 -20.0021,-13.004 -5.33272,0 -18.9923,0.655517 -41.1558,2.00198 -28.6833,2.00198 -49.6776,2.99412 -62.6816,2.99412 -25.6537,0 -50.1559,-1.50592 -73.3293,-4.65949 -5.82879,-0.832684 -10.8249,-1.34647 -14.6694,-1.34647 -12.1536,0 -18.1596,5.01382 -18.1596,14.8466 0,7.15754 4.00397,11.8347 11.8347,14.1556 19.4883,5.50989 34.831,12.1714 45.9925,20.3387 11.0021,7.99022 22.9962,23.4923 35.8408,46.3291 13.004,22.9962 28.329,59.8292 46.1697,110.499 40.1637,114.007 99.8335,267.841 179.169,461.838zm-33.5022 -170.009l-83.1798 -217.986 171.001 2.49805c-9.15952,25.3348 -23.1557,59.9887 -41.9885,104.156 -20.4982,48.3311 -35.6814,85.5007 -45.833,111.332zm164.499 373.007c11.1615,0 20.8348,-4.16342 29.3211,-12.4903 8.504,-8.34455 12.6674,-17.6812 12.6674,-28.0101 0,-20.0021 -16.9903,-42.5023 -51.1658,-67.5005 -26.6636,-19.5061 -51.8213,-39.1716 -75.4908,-58.6599 -23.8289,-19.5061 -39.5082,-29.3388 -47.339,-29.3388 -3.8268,0 -7.99022,2.00198 -12.4903,5.82879 -4.34059,4.00397 -6.50202,7.67132 -6.50202,11.3387 0,3.5079 14.4922,27.0002 43.6539,70.4946 29.0022,43.5122 50.6697,72.4966 64.843,86.8471 13.9962,14.3328 28.329,21.4903 42.5023,21.4903z"
     id="path373" /></glyph>
   <glyph
   unicode="i"
   horiz-adv-x="302"
   id="glyph379"><path
     d="M200.996 594.501c0,-19.3289 -6.99809,-35.8408 -20.8348,-49.6598 -13.819,-13.8367 -30.3309,-20.8348 -49.6598,-20.8348 -19.5061,0 -36.1597,6.99809 -49.9965,20.8348 -13.6773,13.819 -20.4982,30.3309 -20.4982,49.6598 0,19.6655 6.82092,36.1597 20.4982,49.9965 13.8367,13.6773 30.4904,20.4982 49.9965,20.4982 19.3289,0 35.8408,-6.82092 49.6598,-20.4982 13.8367,-13.8367 20.8348,-30.3309 20.8348,-49.9965zm6.99809 -164.499c1.34647,-45.6736 2.00198,-126.993 2.00198,-244.171l-1.4882 -105.166c0,-21.1714 3.49018,-35.327 10.4883,-42.5023 7.17525,-7.15754 18.6734,-11.8347 34.5121,-14.1556 18.319,-2.3386 27.4963,-7.51187 27.4963,-15.6793 0,-8.8229 -7.17525,-13.3229 -21.508,-13.3229 -6.82092,0 -18.6557,0.496067 -35.6637,1.4882 -35.8408,2.3386 -71.3273,3.5079 -106.495,3.5079 -17.3446,0 -34.831,-0.992134 -52.8311,-2.83467 -10.6654,-1.50592 -18.0001,-2.16143 -22.0041,-2.16143 -14.3328,0 -21.508,4.32287 -21.508,13.004 0,8.32684 9.51385,13.3229 28.5061,14.9883 25.1577,2.3386 39.1716,10.6654 42.1657,25.1754 2.83467,14.4922 4.34059,43.8311 4.34059,87.9987 0,57.3312 -0.832684,110.003 -2.67522,157.997 -1.82482,47.9945 -5.17327,75.3313 -9.9922,82.1699 -5.01382,6.82092 -17.6812,11.321 -38.3389,13.6596 -15.9982,1.66537 -24.0061,6.34257 -24.0061,14.3328 0,7.83077 8.16739,12.3308 24.5022,13.6773l10.1694 0.992134 152.328 11.0021z"
     id="path377" /></glyph>
  </font>
</defs>
</svg>
